Достать ножи: Стеклянная луковица

MVO

Добыча

Дубляж

Уэнсдэй

1 сезон

Тор

Дубляж

13 клиническая

1 сезон

Жестокая ночь

MVO

Одни из нас

1 сезон

Deluxe

pack

Рекомендуем

30

Пиратка

ВАЖНО

ВАЖНО

Ghostwire

Пиратка

jed

RePack

nioh2

RePack

RDR2

RePack

NEED FOR SPEED™ PAYBACK

RePack

скачать торрент

Кинопоиск HD

Острые козырьки 6 сезон

6 сезон

FAR CRY 6

RePack

скачать торрент

Лицензия

скачать торрент

MVO

1

1 сезон

скачать торрент

1 сезон

скачать торрент

Лицензия

  

Право на убийство / Righteous Kill (Джон Эвнет) [2008, боевик, триллер, драма, UHDTV 2160p] Дубляж

Право на убийство через торрент piratbit.org

Размер: 11.66 GB | Добавлен: 4 года 6 мес. назад | Торрент скачан:34 раза
Смотреть онлайн | Скачать | Поддержите нас   

23-07-2018 11:10 Право на убийство Скачать торрент  

Право на убийство / Righteous Kill«Большинство уважает значок... Пистолет уважают все»
Год выпуска: 2008
Страна: США
Жанр: боевик, триллер, драма, криминал, детектив
Продолжительность: 01:32:00
Перевод: Дублированный
Режиссер: Джон Эвнет
В ролях:

Роберт Де Ниро (Turk), Аль Пачино (Rooster), Фифти Сент (Spider), Карла Гуджино (Karen Corelli), Джон Легуизамо (Det. Simon Perez), Донни Уолберг (Det. Ted Riley), Брайан Деннехи (Hingis), Трилби Гловер (Jessica), Сайда Аррика Экулона (Gwen Darvis), Алан Розенберг (Stein), Стерлинг К. Браун (Rogers), Барри Праймус (Prosky)
Описание:
Неуловимый убийца-мститель с помощью пистолета вершит свое правосудие над преступниками, сумевшими ускользнуть из лап закона. Напарники Дэвид Фиск и Томас Кован получают это запутанное дело. Однако неожиданный ход киллера путает все карты, и друзья оказываются на очень большом подозрении у коллег. Теперь им нужно любой ценой найти настоящего «стрелка», чтобы снять с себя обвинение в серийных убийствах.
Рейтинг:

MPAA: R - Лицам до 17 лет обязательно присутствие взрослого
Качество: UHDTV 2160p
Формат: MKV
Видео: HEVC, 17.4 Мбит/с, 3840x2160, 25 Кадр/с
Аудио: Русский AC3, 6 ch, 384 Кбит/с
General
Unique ID : 275373653537667700386506253890521312508 (0xCF2B0959A8ED2F4EBBB68856B3F6ACFC)
Complete name : D:\Righteous Kill.2008.2160p.UHDTV.AC3 5.1.HEVC-Lotos2007.mkv
Format : Matroska
Format version : Version 4 / Version 2
File size : 11.7 GiB
Duration : 1 h 32 min
Overall bit rate : 18.1 Mb/s
Encoded date : UTC 2018-06-10 08:11:03
Writing application : TMPGEnc MPEG Smart Renderer 5 Version 5.0.14.20
Writing library : TMPGEnc MPEG Smart Renderer 5 Version 5.0.14.20

Video
ID : 1
Format : HEVC
Format/Info : High Efficiency Video Coding
Format profile : Main@L5@High
Codec ID : V_MPEGH/ISO/HEVC
Duration : 1 h 32 min
Bit rate : 17.4 Mb/s
Width : 3 840 pixels
Height : 2 160 pixels
Display aspect ratio : 16:9
Frame rate mode : Constant
Frame rate : 25.000 FPS
Standard : Component
Color space : YUV
Chroma subsampling : 4:2:0
Bit depth : 8 bits
Bits/(Pixel*Frame) : 0.084
Stream size : 11.2 GiB (96%)
Default : Yes
Forced : No
Color range : Limited
Color primaries : BT.709
Transfer characteristics : BT.709
Matrix coefficients : BT.709

Audio
ID : 2
Format : AC-3
Format/Info : Audio Coding 3
Codec ID : A_AC3
Duration : 1 h 32 min
Bit rate mode : Constant
Bit rate : 384 kb/s
Channel(s) : 6 channels
Channel positions : Front: L C R, Side: L R, LFE
Sampling rate : 48.0 kHz
Frame rate : 31.250 FPS (1536 SPF)
Bit depth : 16 bits
Compression mode : Lossy
Stream size : 253 MiB (2%)
Language : Russian
Service kind : Complete Main
Default : Yes
Forced : No



Скачать Право на убийство через торрент https://a.radikal.ru/a23/1807/03/46e9246e5bba.png Скачать, смотреть онлайн Право на убийство бесплантно в хорошем качестве Описание: Неуловимый убийца-мститель с помощью пистолета вершит свое правосудие над преступниками, сумевшими ускользнуть из лап закона. ... 10 10 4
Info! Золотая раздача, скачанное не засчитывается.
Торрент: Зарегистрирован [2018-07-23 11:10] · скачан: 34 раз
Статус: √ проверено
Размер: 11.66 GB
Как cкачать? Как скачать Право на убийство через торрент | UTorrent

28-11-2019 20:33  


Отключить вcю реклaмy на сайте, в т.ч. и в плеере онлайн просмотра!

    Дорогой пользователь! Огромная просьба, поблагодарите релизера, оцените раздачу и оставьте свои комментарий, если Вы скачали Право на убийство через торрент бесплатно!!
    Комментировать посты могут только пользователи прошедшие не сложную регистрацию
    Показать сообщения:    


    Право на убийство через торрент
    Скачать бесплатно Право на убийство
    Право на убийство скачать торрент
    Право на убийство смотреть онлайн
    Cкачать фильм Право на убийство бесплатно
    Право на убийство скачать торрент в хорошем качестве
    Право на убийство смотреть онлайн бесплатно в хорошем качестве
    Вы не можете начинать темы
    Вы не можете отвечать на сообщения
    Вы не можете редактировать свои сообщения
    Вы не можете удалять свои сообщения
    Вы не можете голосовать в опросах
    Вы не можете прикреплять файлы к сообщениям
    Вы можете скачивать файлы
    Право на убийство / Righteous Kill [2008, боевик, триллер, драма, UHDTV 2160p] Дубляж смотреть онлайн, скачать торрент picoco.icu