Доктор Стрэндж

Лицензия

Добыча

MVO

Дом дракона

1 сезон

Тор

Лицензия

Мэверик

Лицензия

Там, где раки поют

MVO

Властелин колец

1 сезон

Ultimate

pack

Рекомендуем

30

Repack

ВАЖНО

ВАЖНО

Ghostwire

RePack

jed

RePack

nioh2

RePack

RDR2

RePack

NEED FOR SPEED™ PAYBACK

RePack

скачать торрент

Кинопоиск HD

Острые козырьки 6 сезон

6 сезон

FAR CRY 6

RePack

скачать торрент

Лицензия

скачать торрент

MVO

1

1 сезон

скачать торрент

1 сезон

скачать торрент

Лицензия

  

Груз без маркировки (Владимир Попков) [1984 г., Боевик, драма, DVDRip-AVC]

Груз без маркировки через торрент piratbit.org

Размер: 1.37 GB | Добавлен: 4 года 2 мес. назад | Торрент скачан:26 раз
Смотреть онлайн Груз без маркировки | Скачать   

24-07-2018 10:22 Груз без маркировки Скачать торрент  

Груз без маркировки
Год выпуска: 1984
Страна: СССР
Жанр: Боевик, драма
Продолжительность: 01:26:35
Субтитры: Отсутствуют

Режиссер: Владимир Попков

rating

В ролях: Алексей Горбунов, Тыну Карк, Юрий Григорьев, Арнис Лицитис, Гедиминас Гирдвайнис, Гиви Тохадзе, Лина Шевченко, Сергей Пономаренко, Владимир Мсрян, Александр Никитин

Описание: Помощник капитана иностранного торгового судна Чиф связывается с международной наркомафией. Он берется перевезти крупную партию наркотиков в контейнерах без маркировки. Маркировка будет поставлена позднее и только по указанию грузоотправителя. Неожиданно для дозаправки судну приходится зайти в советский порт.

Качество: DVDRip-AVC
Формат: MKV
Видео кодек: AVC
Аудио кодек: AC3
Видео: AVC, 698x408@760x408 , 25.0fps, 2000 Kbps
Аудио#1: AC3 , 2 ch , 48 kHz , 256 kbps
скриншот  скриншот  скриншот  скриншот  

Общее
Уникальный идентификатор : 182633075519360885352950587473572383095 (0x8965D9D470A44CD3A1052CB59AD7C977)
Полное имя : Груз без маркировки_1984-DVDRip-AVC.KORSAR.mkv
Формат : Matroska
Версия формата : Version 2
Размер файла : 1,37 Гбайт
Продолжительность : 1 ч. 26 м.
Общий поток : 2258 Кбит/сек
Дата кодирования : UTC 2016-08-17 14:25:22
Программа кодирования : mkvmerge v5.8.0 ('No Sleep / Pillow') built on Sep 2 2012 15:37:04
Библиотека кодирования : libebml v1.2.3 + libmatroska v1.3.0

Видео
Идентификатор : 1
Формат : AVC
Формат/Информация : Advanced Video Codec
Профиль формата : High@L4.1
Параметр CABAC формата : Да
Параметр RefFrames формата : 16 кадров
Идентификатор кодека : V_MPEG4/ISO/AVC
Продолжительность : 1 ч. 26 м.
Битрейт : 2000 Кбит/сек
Ширина : 698 пикселей
Высота : 408 пикселей
Соотношение сторон : 1,85:1
Режим частоты кадров : Постоянный
Частота кадров : 25,000 кадров/сек
Цветовое пространство : YUV
Субдискретизация насыщенности : 4:2:0
Битовая глубина : 8 бит
Тип развёртки : Прогрессивная
Бит/(Пиксели*Кадры) : 0.281
Размер потока : 1,18 Гбайт (87%)
Заголовок : Груз без маркировки_1984-DVDRip-AVC.KORSAR
Библиотека кодирования : x264 core 148 r2638 7599210
Настройки программы : cabac=1 / ref=16 / deblock=1:-2:-2 / analyse=0x3:0x133 / me=umh / subme=10 / psy=1 / psy_rd=0.80:0.05 / mixed_ref=1 / me_range=32 / chroma_me=1 / trellis=2 / 8x8dct=1 / cqm=0 / deadzone=21,11 / fast_pskip=0 / chroma_qp_offset=-3 / threads=12 / lookahead_threads=3 / sliced_threads=0 / nr=0 / decimate=0 / interlaced=0 / bluray_compat=0 / constrained_intra=0 / bframes=16 / b_pyramid=2 / b_adapt=2 / b_bias=0 / direct=3 / weightb=1 / open_gop=0 / weightp=2 / keyint=250 / keyint_min=25 / scenecut=40 / intra_refresh=0 / rc_lookahead=40 / rc=2pass / mbtree=0 / bitrate=2000 / ratetol=1.0 / qcomp=0.63 / qpmin=0 / qpmax=39 / qpstep=4 / cplxblur=20.0 / qblur=0.5 / vbv_maxrate=50000 / vbv_bufsize=62500 / nal_hrd=none / filler=0 / ip_ratio=1.40 / pb_ratio=1.30 / aq=2:0.60
Язык : English
Default : Да
Forced : Нет
Цветовой диапазон : Limited
Основные цвета : BT.601 PAL
Характеристики трансфера : BT.470 System B, BT.470 System G
Коэффициенты матрицы : BT.601

Аудио
Идентификатор : 2
Формат : AC-3
Формат/Информация : Audio Coding 3
Параметр Endianness формата : Big
Идентификатор кодека : A_AC3
Продолжительность : 1 ч. 26 м.
Вид битрейта : Постоянный
Битрейт : 256 Кбит/сек
Каналы : 2 канала
Расположение каналов : Front: L R
Частота : 48,0 КГц
Частота кадров : 31,250 кадров/сек (1536 SPF)
Битовая глубина : 16 бит
Метод сжатия : С потерями
Размер потока : 159 Мбайт (11%)
Язык : Russian
Default : Да
Forced : Нет

Меню
00:00:00.000 : ru:Chapter 1
00:05:11.440 : ru:Chapter 2
00:22:41.680 : ru:Chapter 3
00:49:40.240 : ru:Chapter 4
01:08:20.080 : ru:Chapter 5




Скачать Груз без маркировки через торрент https://b.radikal.ru/b33/1807/b9/b5073fefb34b.png Скачать, смотреть онлайн Груз без маркировки бесплантно в хорошем качестве Описание: Помощник капитана иностранного торгового судна Чиф связывается с международной наркомафией. Он берется перевезти крупную партию ... 10 10 3
Торрент: Зарегистрирован [2018-07-24 10:22] · скачан: 26 раз
Статус: √ проверено
Размер: 1.37 GB
Как cкачать? Как скачать Груз без маркировки через торрент | UTorrent

28-11-2019 20:33  

Отключить вcю реклaмy на сайте

    Дорогой пользователь! Огромная просьба, поблагодарите релизера, оцените раздачу и оставьте свои комментарий, если Вы скачали Груз без маркировки через торрент бесплатно!!
    Комментировать посты могут только пользователи прошедшие не сложную регистрацию
    Показать сообщения:    


    Груз без маркировки через торрент
    Скачать бесплатно Груз без маркировки
    Груз без маркировки скачать торрент
    Груз без маркировки смотреть онлайн
    Cкачать фильм Груз без маркировки бесплатно
    Груз без маркировки скачать торрент в хорошем качестве
    Груз без маркировки смотреть онлайн бесплатно в хорошем качестве
    Вы не можете начинать темы
    Вы не можете отвечать на сообщения
    Вы не можете редактировать свои сообщения
    Вы не можете удалять свои сообщения
    Вы не можете голосовать в опросах
    Вы не можете прикреплять файлы к сообщениям
    Вы можете скачивать файлы