2 сезон

iTunes

WEBRip

1

2 сезон

iTunes

1 сезон

1 сезон

RePack

30

Ultimate

ВАЖНО

ИГРА 18+

pack

RePack

MK11
pack

Легкие деньги

RePack

jed

RePack

fifa19

RePack

RDR2

RePack

NEED FOR SPEED™ PAYBACK

4 сезон

9 сезон

Бесстыжие 9 сезон

Все сериалы

все сериалы на PB.wtf

RePack

FAR CRY 5

Anonymous, доброе утро, мы не успеваем собрать деньги на оплату серверов за февраль, помогите нам пожалуйста в это трудное время. В качестве благодарности мы отключим Вам всю рекламу на сайте (укажите свой ник в строку Ваше имя)!

×
  
Magnet ссылка

Мир Юрского периода 2 / Jurassic World: Fallen Kingdom (Хуан Антонио Байона) [2018, фантастика, боевик, приключения, WEBRip-AVC] [Ukr DUB] [Line] piratbit.org

Мир Юрского периода 2 через торрент piratbit.org

Размер: 1.39 GB | Добавлен: 2 года 7 мес. назад | Торрент скачан:204 раза
Скачать  

28-07-2018 08:33 Мир Юрского периода 2 Скачать торрент  

Мир Юрского периода 2 / Jurassic World: Fallen Kingdom Год выпуска: 2018
Страна: США, Испания
Жанр: фантастика, боевик, приключения
Продолжительность: 02:08:25
Перевод: Украинский (дублированный)
Субтитры: корейские (хардсаб)

Режиссер: Хуан Антонио Байона

В ролях: Брайс Даллас Ховард, Крис Пратт, Джефф Голдблюм, Тед Левайн, Джеймс Кромуэлл, Тоби Джонс, Б.Д. Вонг, Рейф Сполл, Даниэлла Пинеда, Джеральдин Чаплин

Описание:

На острове Исла-Нублар, где не так давно располагался парк развлечений с динозаврами, правит бал дикая природа. Но без людей все далеко не так спокойно, как могло бы показаться. Основатели парка приняли решение построить его, несмотря на активный вулкан, расположенный в сердце острова. Вулкан пробудился и рискует потопить остров в лаве. Управляющая парка Клэр Дэринг уговаривает дрессировщика Оуэна Грэди вернуться в бывший парк и спасти динозавров от неминуемой гибели.



Качество: WEBRip-AVC
Формат: MKV
Видео: 720x304, 24.950 fps, ~1100 kbps avg
Аудио 1: AC3, 2 Ch, 192 Кбит/c [Ukr DUB]
Аудио 2: AAC, 2 Ch, 256 Кбит/c [Eng]

Релиз --
General
Unique ID : 296239035462569483377940087667820144002 (0xDEDD901AD42E50371F5921979D492582)
Complete name : E:\INTERNET\Jurassic.World.Fallen.Kingdom.2018.WEBRip-AVC.Ukr.Eng.mkv
Format : Matroska
Format version : Version 4 / Version 2
File size : 1.39 GiB
Duration : 2 h 8 min
Overall bit rate : 1 545 kb/s
Encoded date : UTC 2018-07-27 17:27:45
Writing application : mkvmerge v23.0.0 ('The Bride Said No') 64-bit
Writing library : libebml v1.3.6 + libmatroska v1.4.9

Video
ID : 1
Format : AVC
Format/Info : Advanced Video Codec
Format profile : High@L3.1
Format settings : CABAC / 5 Ref Frames
Format settings, CABAC : Yes
Format settings, RefFrames : 5 frames
Codec ID : V_MPEG4/ISO/AVC
Duration : 2 h 8 min
Bit rate : 1 100 kb/s
Width : 720 pixels
Height : 304 pixels
Display aspect ratio : 2.40:1
Frame rate mode : Constant
Frame rate : 24.950 FPS
Color space : YUV
Chroma subsampling : 4:2:0
Bit depth : 8 bits
Scan type : Progressive
Bits/(Pixel*Frame) : 0.201
Stream size : 1 005 MiB (71%)
Writing library : x264 core 148 r2795M aaa9aa8
Encoding settings : cabac=1 / ref=5 / deblock=1:-1:-1 / analyse=0x3:0x113 / me=umh / subme=9 / psy=1 / psy_rd=1.00:0.15 / mixed_ref=1 / me_range=16 / chroma_me=1 / trellis=2 / 8x8dct=1 / cqm=0 / deadzone=21,11 / fast_pskip=1 / chroma_qp_offset=-3 / threads=24 / lookahead_threads=2 / sliced_threads=0 / nr=0 / decimate=1 / interlaced=0 / bluray_compat=0 / constrained_intra=0 / bframes=3 / b_pyramid=2 / b_adapt=2 / b_bias=0 / direct=3 / weightb=1 / open_gop=0 / weightp=2 / keyint=250 / keyint_min=24 / scenecut=40 / intra_refresh=0 / rc_lookahead=50 / rc=abr / mbtree=1 / bitrate=1100 / ratetol=1.0 / qcomp=0.60 / qpmin=0 / qpmax=69 / qpstep=4 / ip_ratio=1.40 / aq=1:1.00
Default : Yes
Forced : No

Audio #1
ID : 2
Format : AC-3
Format/Info : Audio Coding 3
Format settings, Endianness : Big
Codec ID : A_AC3
Duration : 2 h 8 min
Bit rate mode : Constant
Bit rate : 192 kb/s
Channel(s) : 2 channels
Channel positions : Front: L R
Sampling rate : 48.0 kHz
Frame rate : 31.250 FPS (1536 SPF)
Bit depth : 16 bits
Compression mode : Lossy
Delay relative to video : -43 ms
Stream size : 176 MiB (12%)
Title : DUB Line
Language : Ukrainian
Service kind : Complete Main
Default : Yes
Forced : No

Audio #2
ID : 3
Format : AAC
Format/Info : Advanced Audio Codec
Format profile : LC
Codec ID : A_AAC-2
Duration : 2 h 8 min
Bit rate : 256 kb/s
Channel(s) : 2 channels
Channel positions : Front: L R
Sampling rate : 48.0 kHz
Frame rate : 46.875 FPS (1024 SPF)
Compression mode : Lossy
Delay relative to video : -43 ms
Stream size : 235 MiB (17%)
Language : English
Default : No
Forced : No
скриншот   скриншот   скриншот  
piratbit.org



Скачать Мир Юрского периода 2 через торрент http://i104.fastpic.ru/big/2018/0728/f8/1fc4a1619c98bfb6c2478ce84cee14f8.jpg Скачать фильм Мир Юрского периода 2 через торрент бесплантно в хорошем качестве Описание: На острове Исла-Нублар, где не так давно располагался парк развлечений с динозаврами, правит бал дикая природа. Но без людей все ... 8.9 10 8
Info! Золотая раздача, скачанное не засчитывается.
Торрент: Зарегистрирован [2018-07-28 08:33] · скачан: 204 раз
Статус: T временная
Размер: 1.39 GB
Как cкачать? Как скачать Мир Юрского периода 2 через торрент | UTorrent

% Раздел Тема Автор DL S | L
Фильмы (HD 720p, 1080p) (48-60 fps) [ 3.92 GB ] Мир Юрского периода 2 / Jurassic World: Fallen Kingdom [2018 BDRip 720p / 60 FPS ] от R.G. HD-Films slaventi-69 Скачать
3 | 0
3D Фильмы [ 15.61 GB ] Мир Юрского периода 2 в 3Д / Jurassic World: Fallen Kingdom 3D [2018 BDRip 1080p] OverUnder / Вертикальная стереопара serega768 Скачать
1 | 0
Фильмы [HD 720p, 1080p] (Хороший звук DUB, MVO) [ 5.4 GB ] Мир Юрского периода 2 / Jurassic World: Fallen Kingdom [2018 BDRip 1080p HEVC ()] Мичман37 Скачать
1 | 0
Ultra HD (UHD: 2K, 4K, 8K) — видео сверхвысокой чёткости [ 77.49 GB ] Мир Юрского периода 2 / Jurassic World: Fallen Kingdom [2018 UHD Blu-Ray 2160p] DUB [Dolby Vision] sheker187 Скачать
1 | 0
Фильмы (HD 720p, 1080p) (48-60 fps) [ 10.62 GB ] Мир Юрского периода 2 / Jurassic World: Fallen Kingdom [2018 BDRip 1080p 60 fps] DUB [] bober100 Скачать
2 | 0
Фильмы (Blu-ray, BD-Remux, HDDVD) [ 41.63 GB ] Мир Юрского периода 2 / Jurassic World: Fallen Kingdom [2018 Blu-ray EUR 1080p] DUB [] bober100 Скачать
1 | 0
3D Фильмы [ 10.8 GB ] Мир Юрского периода 2 в 3Д / Jurassic World: Fallen Kingdom 3D [2018 BDRip 1080p] DUB Half OverUnder sheker187 Скачать
1 | 0

28-11-2019 20:33  

Отключить всю рекламу на сайте

07-09-2018 17:08 Мир Юрского периода 2 Скачать торрент  

говносайт. 1000 скачек и ни слова о фильме. либо все были ошарашены шедевром,что слово было сложно проронить?piratbit.org
!schultz писал(а):

что ты тут тогда делаешь? уже 7 лет



    Дорогой пользователь! Огромная просьба, поблагодарите релизера, оцените раздачу и оставьте свои комментарий, если Вы скачали Мир Юрского периода 2 через торрент бесплатно! Внесите свою лепту в развитие PiratBit!
    Комментировать посты могут только пользователи прошедшие не сложную регистрацию
    Показать сообщения:    

    Мир Юрского периода 2 через торрент
    Скачать бесплатно Мир Юрского периода 2
    Мир Юрского периода 2 скачать торрент
    Мир Юрского периода 2 смотреть онлайн
    Cкачать фильм Мир Юрского периода 2 бесплатно
    Мир Юрского периода 2 скачать торрент в хорошем качестве
    Мир Юрского периода 2 смотреть онлайн бесплатно в хорошем качестве


    Вы не можете начинать темы
    Вы не можете отвечать на сообщения
    Вы не можете редактировать свои сообщения
    Вы не можете удалять свои сообщения
    Вы не можете голосовать в опросах
    Вы не можете прикреплять файлы к сообщениям
    Вы можете скачивать файлы