Достать ножи: Стеклянная луковица

MVO

Добыча

Дубляж

Уэнсдэй

1 сезон

Тор

Дубляж

13 клиническая

1 сезон

Жестокая ночь

MVO

Одни из нас

1 сезон

Deluxe

pack

Рекомендуем

30

Пиратка

ВАЖНО

ВАЖНО

Ghostwire

Пиратка

jed

RePack

nioh2

RePack

RDR2

RePack

NEED FOR SPEED™ PAYBACK

RePack

скачать торрент

Кинопоиск HD

Острые козырьки 6 сезон

6 сезон

FAR CRY 6

RePack

скачать торрент

Лицензия

скачать торрент

MVO

1

1 сезон

скачать торрент

1 сезон

скачать торрент

Лицензия

  

Терминатор 2: Судный день / Terminator 2: Judgment Day (Джеймс Кэмерон) [1991, фантастика, боевик, триллер, UHD BDRip 2160p] [HDR] MVO [Twister] [Театральная версия]

Терминатор 2: Судный день через торрент piratbit.org

Размер: 15.76 GB | Добавлен: 4 года 6 мес. назад | Торрент скачан:210 раз
Смотреть онлайн | Скачать | Поддержите нас   

30-07-2018 18:08 Терминатор 2: Судный день Скачать торрент  

Терминатор 2: Судный день / Terminator 2: Judgment DayТеатральная версия
Год выпуска: 1991
Страна: США, Франция
Жанр: фантастика, боевик, триллер
Продолжительность: 02:17:08
Перевод: Профессиональный многоголосый | Twister
Субтитры: Русские (forced, full), Английские
Режиссер: Джеймс Кэмерон
В ролях:

Арнольд Шварценеггер (The Terminator), Линда Хэмилтон (Sarah Connor), Эдвард Ферлонг (John Connor), Роберт Патрик (T-1000), Эрл Боэн (Dr. Silberman), Джо Мортон (Miles Dyson), С. Ипейта Меркерсон (Tarissa Dyson), Кастуло Герра (Enrique Salceda), Дэнни Кукси (Tim), Дженетт Голдстин (Janelle Voight), Ксандер Беркли (Todd Voight), Лесли Хэмилтон Геррен (Twin Sarah)
Описание:
Прошло более десяти лет с тех пор, как киборг-терминатор из 2029 года пытался уничтожить Сару Коннор - женщину, чей будущий сын выиграет войну человечества против машин.
Рейтинг:


MPAA: R - Лицам до 17 лет обязательно присутствие взрослого
Качество: UHD BDRip 2160p | HDR
Формат: MKV

Видео: HEVC, 15200 Кбит/с, 3840x1600, 23.976 Кадр/с
Аудио#1: 48 kHz, AC3, 5.1, 640 Kbps | Профессиональный многоголосый | RUS | Twister
Аудио#2: 48 kHz, AC3, 5.1, 640 Kbps | ENG |
скриншот  скриншот  скриншот  

Общее
Уникальный идентификатор : 92297230749536683274524487277980215608 (0x456FCCCFF9BDE532C56F52240320E938)
Полное имя : D:\Terminator 2 Judgment Day (1991) UHDRip 2160p [HEVC] 10bit.mkv
Формат : Matroska
Версия формата : Version 4 / Version 2
Размер файла : 15,8 Гбайт
Продолжительность : 2 ч. 17 м.
Общий поток : 16,4 Мбит/сек
Название фильма : Terminator 2 Judgment Day 1991 from ExKinoRay
Дата кодирования : UTC 2018-07-01 20:25:47
Программа кодирования : mkvmerge v20.0.0 ('I Am The Sun') 64-bit
Библиотека кодирования : libebml v1.3.5 + libmatroska v1.4.8
Обложка : Yes
Attachments : cover.jpg

Видео
Идентификатор : 1
Формат : HEVC
Формат/Информация : High Efficiency Video Coding
Профиль формата : Main 10@L5.1@Main
Идентификатор кодека : V_MPEGH/ISO/HEVC
Продолжительность : 2 ч. 17 м.
Битрейт : 15,2 Мбит/сек
Ширина : 3840 пикселей
Высота : 1600 пикселей
Соотношение сторон : 2,40:1
Режим частоты кадров : Постоянный
Частота кадров : 23,976 (24000/1001) кадра/сек
Цветовое пространство : YUV
Субдискретизация насыщенности : 4:2:0
Битовая глубина : 10 бит
Бит/(Пиксели*Кадры) : 0.101
Размер потока : 14,2 Гбайт (90%)
Библиотека кодирования : x265 2.7+336-07defe235cde:[Windows][clang 7.0.0][64 bit] 10bit
Настройки программы : cpuid=1049583 / frame-threads=5 / numa-pools=4 / wpp / no-pmode / no-pme / no-psnr / no-ssim / log-level=3 / input-csp=1 / input-res=3840x1600 / interlace=0 / total-frames=0 / level-idc=51 / high-tier=1 / uhd-bd=0 / ref=3 / allow-non-conformance / no-repeat-headers / annexb / no-aud / no-hrd / info / hash=0 / no-temporal-layers / open-gop / min-keyint=24 / keyint=240 / gop-lookahead=0 / bframes=6 / b-adapt=0 / b-pyramid / bframe-bias=0 / rc-lookahead=15 / lookahead-slices=8 / scenecut=40 / radl=0 / no-intra-refresh / ctu=64 / min-cu-size=8 / no-rect / no-amp / max-tu-size=32 / tu-inter-depth=1 / tu-intra-depth=1 / limit-tu=0 / rdoq-level=0 / dynamic-rd=0.00 / no-ssim-rd / signhide / no-tskip / nr-intra=0 / nr-inter=0 / no-constrained-intra / strong-intra-smoothing / max-merge=2 / limit-refs=3 / no-limit-modes / me=1 / subme=7 / merange=57 / temporal-mvp / weightp / no-weightb / no-analyze-src-pics / deblock=-3:-3 / sao / no-sao-non-deblock / rd=3 / no-early-skip / rskip / no-fast-intra / no-tskip-fast / no-cu-lossless / no-b-intra / no-splitrd-skip / rdpenalty=0 / psy-rd=2.00 / psy-rdoq=0.00 / no-rd-refine / no-lossless / cbqpoffs=0 / crqpoffs=0 / rc=abr / bitrate=15200 / qcomp=0.60 / qpstep=4 / stats-write=0 / stats-read=0 / ipratio=1.40 / pbratio=1.30 / aq-mode=1 / aq-strength=1.00 / cutree / zone-count=0 / no-strict-cbr / qg-size=32 / no-rc-grain / qpmax=69 / qpmin=0 / no-const-vbv / sar=1 / overscan=0 / videoformat=5 / range=0 / colorprim=9 / transfer=16 / colormatrix=9 / chromaloc=0 / display-window=0 / max-cll=0,0 / min-luma=0 / max-luma=1023 / log2-max-poc-lsb=8 / vui-timing-info / vui-hrd-info / slices=1 / no-opt-qp-pps / no-opt-ref-list-length-pps / no-multi-pass-opt-rps / scenecut-bias=0.05 / no-opt-cu-delta-qp / no-aq-motion / no-hdr / no-hdr-opt / no-dhdr10-opt / no-idr-recovery-sei / analysis-reuse-level=5 / scale-factor=0 / refine-intra=0 / refine-inter=0 / refine-mv=0 / no-limit-sao / ctu-info=0 / no-lowpass-dct / refine-mv-type=0 / copy-pic=1 / max-ausize-factor=1.0 / no-dynamic-refine / no-single-sei
Язык : English
Default : Да
Forced : Нет
Цветовой диапазон : Limited
Основные цвета : BT.2020
Характеристики трансфера : SMPTE ST 2084
Коэффициенты матрицы : BT.2020 non-constant

Аудио #1
Идентификатор : 2
Формат : AC-3
Формат/Информация : Audio Coding 3
Расширение режима : CM (complete main)
Параметр Endianness формата : Big
Идентификатор кодека : A_AC3
Продолжительность : 2 ч. 17 м.
Вид битрейта : Постоянный
Битрейт : 640 Кбит/сек
Каналы : 6 каналов
Расположение каналов : Front: L C R, Side: L R, LFE
Частота : 48,0 КГц
Частота кадров : 31,250 кадров/сек (1536 spf)
Метод сжатия : С потерями
Размер потока : 629 Мбайт (4%)
Заголовок : MVO [Twister]
Язык : Russian
Default : Да
Forced : Нет

Аудио #2
Идентификатор : 3
Формат : AC-3
Формат/Информация : Audio Coding 3
Расширение режима : CM (complete main)
Параметр Endianness формата : Big
Идентификатор кодека : A_AC3
Продолжительность : 2 ч. 17 м.
Вид битрейта : Постоянный
Битрейт : 640 Кбит/сек
Каналы : 6 каналов
Расположение каналов : Front: L C R, Side: L R, LFE
Частота : 48,0 КГц
Частота кадров : 31,250 кадров/сек (1536 spf)
Метод сжатия : С потерями
Размер потока : 629 Мбайт (4%)
Заголовок : Original
Язык : English
Default : Нет
Forced : Нет

Текст #1
Идентификатор : 4
Формат : UTF-8
Идентификатор кодека : S_TEXT/UTF8
Идентификатор кодека/Информация : UTF-8 Plain Text
Заголовок : Forced
Язык : Russian
Default : Да
Forced : Нет

Текст #2
Идентификатор : 5
Формат : UTF-8
Идентификатор кодека : S_TEXT/UTF8
Идентификатор кодека/Информация : UTF-8 Plain Text
Заголовок : Full
Язык : Russian
Default : Нет
Forced : Нет

Текст #3
Идентификатор : 6
Формат : UTF-8
Идентификатор кодека : S_TEXT/UTF8
Идентификатор кодека/Информация : UTF-8 Plain Text
Заголовок : Full
Язык : English
Default : Нет
Forced : Нет

Меню
00:00:00.000 : :Chapter 1
00:09:42.791 : :Chapter 2
00:22:07.034 : :Chapter 3
00:35:00.889 : :Chapter 4
00:47:57.583 : :Chapter 5
01:01:44.993 : :Chapter 6
01:13:17.143 : :Chapter 7
01:21:51.115 : :Chapter 8
01:30:19.122 : :Chapter 9
01:39:28.379 : :Chapter 10
01:50:05.474 : :Chapter 11
02:03:45.668 : :Chapter 12




Скачать Терминатор 2: Судный день через торрент http://i99.fastpic.ru/big/2017/1226/0f/4b1ccda062ee6a70e6201a5336f1280f.png Скачать, смотреть онлайн Терминатор 2: Судный день бесплантно в хорошем качестве Описание: Прошло более десяти лет с тех пор, как киборг-терминатор из 2029 года пытался уничтожить Сару Коннор - женщину, чей будущий сын ... 9.9 10 8
Торрент: Зарегистрирован [2018-07-30 18:08] · скачан: 210 раз
Статус: √ проверено
Размер: 15.76 GB
Как cкачать? Как скачать Терминатор 2: Судный день через торрент | UTorrent

% Раздел Тема Автор DL S | L
Фильмы [HD 720p, 1080p] (Хороший звук DUB, MVO) [ 16.7 GB ] Терминатор 2: Судный день / Terminator 2: Judgment Day | MVO+6xAVO | 1080p, 5xMVO+6xAVO Userman4ik Скачать
1 | 0
3D Фильмы [ 19.59 GB ] Терминатор 2: Судный день 3Д / Terminator 2: Judgment Day 3D | MVO | 1080p bober100 Скачать
1 | 0
Видео для КПК и Смартфонов [ 949 MB ] Терминатор 2: Судный день / Terminator 2: Judgment Day | DUB | Терминатор 2: Судный день / Terminator 2: Judgment Day (Джеймс Кэмерон Cтрана Скачать
1 | 0
Фильмы [HD 720p, 1080p] (Хороший звук DUB, MVO) [ 9.2 GB ] Терминатор 2: Судный день / Terminator 2: Judgment Day | MVO | 1080p, HEVC (10bit Мичман37 Скачать
1 | 0
Ultra HD (UHD: 2K, 4K, 8K) [ 71.07 GB ] Терминатор 2: Судный день / Terminator 2: Judgment Day | MVO + AVO + VO | 2160p sheker187 Скачать
2 | 0
3D Фильмы [ 19.66 GB ] Терминатор 2: Судный день в 3Д / Terminator 2: Judgment Day 3D | реопара | 1080p serega768 Скачать
1 | 0
Ultra HD (UHD: 2K, 4K, 8K) [ 53.24 GB ] Терминатор 2: Судный день / Terminator 2: Judgment Day | MVO + DVO + AVO + VO | 2160p sheker187 Скачать
2 | 0

28-11-2019 20:33  


Отключить вcю реклaмy на сайте, в т.ч. и в плеере онлайн просмотра!

    Дорогой пользователь! Огромная просьба, поблагодарите релизера, оцените раздачу и оставьте свои комментарий, если Вы скачали Терминатор 2: Судный день через торрент бесплатно!!
    Комментировать посты могут только пользователи прошедшие не сложную регистрацию
    Показать сообщения:    


    Терминатор 2: Судный день через торрент
    Скачать бесплатно Терминатор 2: Судный день
    Терминатор 2: Судный день скачать торрент
    Терминатор 2: Судный день смотреть онлайн
    Cкачать фильм Терминатор 2: Судный день бесплатно
    Терминатор 2: Судный день скачать торрент в хорошем качестве
    Терминатор 2: Судный день смотреть онлайн бесплатно в хорошем качестве
    Вы не можете начинать темы
    Вы не можете отвечать на сообщения
    Вы не можете редактировать свои сообщения
    Вы не можете удалять свои сообщения
    Вы не можете голосовать в опросах
    Вы не можете прикреплять файлы к сообщениям
    Вы можете скачивать файлы
    Терминатор 2: Судный день / Terminator 2: Judgment Day [1991, фантастика, боевик, триллер, UHD BDRip 2160p] [HDR] MVO [Twister] [Театральная версия] смотреть онлайн, скачать торрент picoco.icu