Доктор Стрэндж

Лицензия

Добыча

MVO

Дом дракона

1 сезон

Тор

Лицензия

Мэверик

Лицензия

Там, где раки поют

MVO

Властелин колец

1 сезон

Ultimate

pack

Рекомендуем

30

Repack

ВАЖНО

ВАЖНО

Ghostwire

RePack

jed

RePack

nioh2

RePack

RDR2

RePack

NEED FOR SPEED™ PAYBACK

RePack

скачать торрент

Кинопоиск HD

Острые козырьки 6 сезон

6 сезон

FAR CRY 6

RePack

скачать торрент

Лицензия

скачать торрент

MVO

1

1 сезон

скачать торрент

1 сезон

скачать торрент

Лицензия

  

Друг мой, Колька!.. (Александр Митта, Алексей Салтыков) [1961, СССР, драма, DVDRip от AVP Studio]

Друг мой, Колька!.. через торрент piratbit.org

Размер: 1.09 GB | Добавлен: 4 года 2 мес. назад | Торрент скачан:15 раз
Смотреть онлайн Друг мой, Колька!.. | Скачать   

01-08-2018 06:31 Друг мой, Колька!.. Скачать торрент  

Друг мой, Колька!..
Страна: СССР
Производство: Мосфильм

Жанр: драма
Год выпуска: 1961
Продолжительность: 01:22:49

Перевод: Не требуется
Cубтитры: нет
Оригинальная аудиодорожка: русский

Режиссер: Александр Митта, Алексей Салтыков

В ролях:
Александр Кобозев, Анна Родионова, Алексей Борзунов, Виктор Онучак, Татьяна Кузнецова, Анатолий Кузнецов, Антонина Дмитриева, Виталий Ованесов, Савелий Крамаров, Борис Новиков, Людмила Чернышёва, Игорь Косухин...
Об актёрах подробней

Описание:
По одноименной пьесе А.Хмелика.
Кольке Снегиреву скучно в школе. Остальным ребятам тоже. Работа пионерской организации погрязла в однообразной рутине. Посмотреть хотя бы, как проходит сбор на тему: "Береги минутку". Брать пример можно только с Льва Толстого (много написал), круглой отличницы Маши Канарейкиной да Юлия Цезаря, пример с которым был признан старшей пионервожатой неудачным. Самой пионервожатой работа надоела, детей она не любит, вокруг нее крутятся только карьеристы и подлизы, будущие комсомольские работники.

Источник: DVD5 R5
Качество видео: DVDRip
Формат видео: AVI

Видео: 704х528 (4:3), 25 fps, XviD ~ 1424 kbps avg, 0.153 bit/pixel
Аудио: 48 kHz, Dolby Digital AC3 5.1, 448 kbps

Раздача от:
Общее
Полное имя : Drug.moy,Kolka!..1961.DVDRip_[New-team]_by_AVP_Studio.avi
Формат : AVI
Формат/Информация : Audio Video Interleave
Размер файла : 1,09 Гбайт
Продолжительность : 1 ч. 22 м.
Общий поток : 1881 Кбит/сек
Программа кодирования : VirtualDubMod 1.5.10.3 | www.virtualdub-fr.org || (build 2550/release)
Библиотека кодирования : VirtualDubMod build 2550/release

Видео
Идентификатор : 0
Формат : MPEG-4 Visual
Профиль формата : Advanced Simple@L5
Настройки формата : BVOP1 / Custom Matrix
Параметр BVOP формата : 1
Параметр QPel формата : Нет
Параметр GMC формата : Без точки перехода
Параметр матрицы формата : Выборочная
Идентификатор кодека : XVID
Идентификатор кодека/Подсказка : XviD
Продолжительность : 1 ч. 22 м.
Битрейт : 1424 Кбит/сек
Ширина : 704 пикселя
Высота : 528 пикселей
Соотношение сторон : 4:3
Частота кадров : 25,000 кадров/сек
Цветовое пространство : YUV
Субдискретизация насыщенности : 4:2:0
Битовая глубина : 8 бит
Тип развёртки : Прогрессивная
Метод сжатия : С потерями
Бит/(Пиксели*Кадры) : 0.153
Размер потока : 843 Мбайт (76%)
Библиотека кодирования : XviD 73

Аудио
Идентификатор : 1
Формат : AC-3
Формат/Информация : Audio Coding 3
Идентификатор кодека : 2000
Продолжительность : 1 ч. 22 м.
Вид битрейта : Постоянный
Битрейт : 448 Кбит/сек
Каналы : 6 каналов
Расположение каналов : Front: L C R, Side: L R, LFE
Частота : 48,0 КГц
Частота кадров : 31,250 кадров/сек (1536 SPF)
Битовая глубина : 16 бит
Метод сжатия : С потерями
Задержка видео : 509 мс.
Размер потока : 265 Мбайт (24%)
Выравнивание : Разделение по промежуткам
Продолжительность промежутка : 40 мс. (1,00 видеокадр)
Время предзагрузки промежутка : 500 мс



Скачать Друг мой, Колька!.. через торрент http://picplus.ru/img/1808/01/d9b3465b.png Скачать, смотреть онлайн Друг мой, Колька!.. бесплантно в хорошем качестве Описание:По одноименной пьесе А.Хмелика.Кольке Снегиреву скучно в школе. Остальным ребятам тоже. Работа пионерской организации погрязла в ... 10 10 2
Info! Золотая раздача, скачанное не засчитывается.
Торрент: Зарегистрирован [2018-08-01 06:31] · скачан: 15 раз
Статус: √ проверено
Размер: 1.09 GB
Как cкачать? Как скачать Друг мой, Колька!.. через торрент | UTorrent

% Раздел Тема Автор DL S | L
Кино СССР [ 1.09 GB ] Друг мой, Колька!.. | | DVDRip-AVC от AVP Studio AVP Studio Скачать
1 | 0
Кино СССР [ 1.37 GB ] Друг мой, Колька!.. | | DVDRip sanekbest1 Скачать
1 | 0

28-11-2019 20:33  

Отключить вcю реклaмy на сайте

    Дорогой пользователь! Огромная просьба, поблагодарите релизера, оцените раздачу и оставьте свои комментарий, если Вы скачали Друг мой, Колька!.. через торрент бесплатно!!
    Комментировать посты могут только пользователи прошедшие не сложную регистрацию
    Показать сообщения:    


    Друг мой, Колька!.. через торрент
    Скачать бесплатно Друг мой, Колька!..
    Друг мой, Колька!.. скачать торрент
    Друг мой, Колька!.. смотреть онлайн
    Cкачать фильм Друг мой, Колька!.. бесплатно
    Друг мой, Колька!.. скачать торрент в хорошем качестве
    Друг мой, Колька!.. смотреть онлайн бесплатно в хорошем качестве
    Вы не можете начинать темы
    Вы не можете отвечать на сообщения
    Вы не можете редактировать свои сообщения
    Вы не можете удалять свои сообщения
    Вы не можете голосовать в опросах
    Вы не можете прикреплять файлы к сообщениям
    Вы можете скачивать файлы