Достать ножи: Стеклянная луковица

MVO

Добыча

Дубляж

Уэнсдэй

1 сезон

Тор

Дубляж

13 клиническая

1 сезон

Жестокая ночь

MVO

Одни из нас

1 сезон

Deluxe

pack

Рекомендуем

30

Пиратка

ВАЖНО

ВАЖНО

Ghostwire

Пиратка

jed

RePack

nioh2

RePack

RDR2

RePack

NEED FOR SPEED™ PAYBACK

RePack

скачать торрент

Кинопоиск HD

Острые козырьки 6 сезон

6 сезон

FAR CRY 6

RePack

скачать торрент

Лицензия

скачать торрент

MVO

1

1 сезон

скачать торрент

1 сезон

скачать торрент

Лицензия

  

Хищники / Predators (Нимрод Антал) [2010, Фантастика, боевик, UHD BD Remux 2160p] [HDR] 2xAVO+Дубляж (rus, ukr) [Лицензия]

Хищники через торрент piratbit.org

Размер: 52.75 GB | Добавлен: 4 года 6 мес. назад | Торрент скачан:48 раз
Смотреть онлайн | Скачать | Поддержите нас   

04-08-2018 21:32 Хищники Скачать торрент  

Хищники / Predators«Они - самые опасные убийцы на планете. Но это не наша планета...»
Год выпуска: 2010
Страна: США
Жанр: Фантастика, боевик
Продолжительность: 01:46:53
Перевод: Дублированный | Лицензия, Авторский
Субтитры: Русские, украинские, английские

Режиссер: Нимрод Антал

rating

В ролях:

Эдриан Броуди (Royce), Тофер Грейс (Edwin), Алиси Брага (Isabelle), Уолтон Гоггинс (Stans), Олег Тактаров (Nikolai), Лоренс Фишбёрн (Noland), Дэнни Трехо (Cuchillo), Луис Одзава Чжанцзянь (Hanzo), Махершала Али (Mombasa), Кэри Джонс (Tracker Predator), Брайан Стил (Berserker Predator / Falconer Predator), Дерек Мирс (Classic Predator)
Описание:

Наемник Ройс невольно вынужден возглавить группу профессионалов, выполняющих загадочную миссию на неизвестной планете. За исключением опального доктора все они - хладнокровные убийцы: наемники, гангстеры, осужденные и участники отрядов смерти людские «хищники». Но когда их начинает систематически преследовать и истреблять невообразимое чудовище, становится очевидно, что теперь они в роли своих жертв.

Качество: UHD BD Remux 2160p | HDR
Формат: MKV

Видео: MPEG-H HEVC HDR Video, 3840x2160, 57.3.0 Mbit/s, 23.976 fps
Аудио#1: 48 kHz, DTS, 5.1, 768 Kbps | Дублированный | RUS |
Аудио#2: 48 kHz, DTS-HD MA, 5.1, 4036 Kbps | авторский | RUS |
Аудио#3: 48 kHz, DTS-HD MA, 5.1, 4032 Kbps | авторский | RUS |
Аудио#4: 48 kHz, AC3, 5.1, 448 Kbps | Дублированный | UKR |
Аудио#5: 48 kHz, AC3, 5.1, 4031 Kbps | Оригинал | ENG |
скриншот  
скриншот  скриншот  скриншот  скриншот  скриншот  

General
Unique ID : 57930103811319717316621431058577175830 (0x2B94EEA21D43ED4A33637866D7733516)
Complete name : D:Video111Predators.2010.BDREMUX.2160p.4K.HDR.HEVC.ExKinoRay.mkv
Format : Matroska
Format version : Version 4 / Version 2
File size : 52.8 GiB
Duration : 1 h 46 min
Overall bit rate : 70.7 Mb/s
Movie name : Predators 2010 from ExKinoRay
Encoded date : UTC 2018-08-04 20:42:24
Writing application : mkvmerge v23.0.0 ('The Bride Said No') 64-bit
Writing library : libebml v1.3.6 + libmatroska v1.4.9

Video
ID : 1
Format : HEVC
Format/Info : High Efficiency Video Coding
Commercial name : HDR10
Format profile : Main 10@L5.1@High
Codec ID : V_MPEGH/ISO/HEVC
Duration : 1 h 46 min
Bit rate : 57.3 Mb/s
Width : 3 840 pixels
Height : 2 160 pixels
Display aspect ratio : 16:9
Frame rate mode : Constant
Frame rate : 23.976 (24000/1001) FPS
Color space : YUV
Chroma subsampling : 4:2:0 (Type 2)
Bit depth : 10 bits
Bits/(Pixel*Frame) : 0.288
Stream size : 42.8 GiB (81%)
Language : English
Default : Yes
Forced : No
Color range : Limited
Color primaries : BT.2020
Transfer characteristics : PQ
Matrix coefficients : BT.2020 non-constant
Mastering display color pri : Display P3
Mastering display luminance : min: 0.0050 cd/m2, max: 1000 cd/m2

Audio #1
ID : 2
Format : DTS
Format/Info : Digital Theater Systems
Codec ID : A_DTS
Duration : 1 h 46 min
Bit rate mode : Constant
Bit rate : 768 kb/s
Channel(s) : 6 channels
Channel positions : Front: L C R, Side: L R, LFE
Sampling rate : 48.0 kHz
Frame rate : 93.750 FPS (512 SPF)
Bit depth : 24 bits
Compression mode : Lossy
Stream size : 587 MiB (1%)
Title : Дубляж
Language : Russian
Default : Yes
Forced : Yes

Audio #2
ID : 3
Format : DTS
Format/Info : Digital Theater Systems
Format profile : MA / Core
Codec ID : A_DTS
Duration : 1 h 46 min
Bit rate mode : Variable / Constant
Bit rate : 4 036 kb/s / 1 509 kb/s
Channel(s) : 6 channels
Channel positions : Front: L C R, Side: L R, LFE
Sampling rate : 48.0 kHz
Frame rate : 93.750 FPS (512 SPF)
Bit depth : 24 bits
Compression mode : Lossless / Lossy
Stream size : 3.01 GiB (6%)
Title : AVO [Гаврилов]
Language : Russian
Default : No
Forced : No

Audio #3
ID : 4
Format : DTS
Format/Info : Digital Theater Systems
Format profile : MA / Core
Codec ID : A_DTS
Duration : 1 h 46 min
Bit rate mode : Variable / Constant
Bit rate : 4 032 kb/s / 1 509 kb/s
Channel(s) : 6 channels
Channel positions : Front: L C R, Side: L R, LFE
Sampling rate : 48.0 kHz
Frame rate : 93.750 FPS (512 SPF)
Bit depth : 24 bits
Compression mode : Lossless / Lossy
Stream size : 3.01 GiB (6%)
Title : AVO [Строев]
Language : Russian
Default : No
Forced : No

Audio #4
ID : 5
Format : AC-3
Format/Info : Audio Coding 3
Codec ID : A_AC3
Duration : 1 h 46 min
Bit rate mode : Constant
Bit rate : 448 kb/s
Channel(s) : 6 channels
Channel positions : Front: L C R, Side: L R, LFE
Sampling rate : 48.0 kHz
Frame rate : 31.250 FPS (1536 SPF)
Bit depth : 16 bits
Compression mode : Lossy
Stream size : 342 MiB (1%)
Language : Ukrainian
Service kind : Complete Main
Default : No
Forced : No

Audio #5
ID : 6
Format : DTS
Format/Info : Digital Theater Systems
Format profile : MA / Core
Codec ID : A_DTS
Duration : 1 h 46 min
Bit rate mode : Variable / Constant
Bit rate : 4 031 kb/s / 1 509 kb/s
Channel(s) : 6 channels
Channel positions : Front: L C R, Side: L R, LFE
Sampling rate : 48.0 kHz
Frame rate : 93.750 FPS (512 SPF)
Bit depth : 24 bits
Compression mode : Lossless / Lossy
Stream size : 3.01 GiB (6%)
Title : Original
Language : English
Default : No
Forced : No

Text #1
ID : 7
Format : UTF-8
Codec ID : S_TEXT/UTF8
Codec ID/Info : UTF-8 Plain Text
Duration : 1 h 45 min
Bit rate : 29 b/s
Count of elements : 714
Stream size : 23.1 KiB (0%)
Title : R5
Language : Russian
Default : No
Forced : No

Text #2
ID : 8
Format : UTF-8
Codec ID : S_TEXT/UTF8
Codec ID/Info : UTF-8 Plain Text
Duration : 1 h 39 min
Bit rate : 28 b/s
Count of elements : 555
Stream size : 21.0 KiB (0%)
Title : Notabenoid
Language : Russian
Default : No
Forced : No

Text #3
ID : 9
Format : UTF-8
Codec ID : S_TEXT/UTF8
Codec ID/Info : UTF-8 Plain Text
Duration : 1 h 38 min
Bit rate : 37 b/s
Count of elements : 765
Stream size : 26.9 KiB (0%)
Title : egor-motygin (+18)
Language : Russian
Default : No
Forced : No

Text #4
ID : 10
Format : UTF-8
Codec ID : S_TEXT/UTF8
Codec ID/Info : UTF-8 Plain Text
Duration : 1 h 45 min
Bit rate : 29 b/s
Count of elements : 714
Stream size : 22.8 KiB (0%)
Title : R5
Language : Ukrainian
Default : No
Forced : No

Text #5
ID : 11
Format : UTF-8
Codec ID : S_TEXT/UTF8
Codec ID/Info : UTF-8 Plain Text
Duration : 1 h 45 min
Bit rate : 27 b/s
Count of elements : 1000
Stream size : 21.1 KiB (0%)
Title : SDH
Language : English
Default : No
Forced : No

Menu
00:00:00.000 : en:00:00:00.000
00:05:27.035 : en:00:05:27.035
00:07:57.394 : en:00:07:57.394
00:13:33.521 : en:00:13:33.521
00:17:26.587 : en:00:17:26.587
00:20:02.410 : en:00:20:02.410
00:23:46.300 : en:00:23:46.300
00:26:19.119 : en:00:26:19.119
00:31:34.518 : en:00:31:34.518
00:34:56.511 : en:00:34:56.511
00:38:24.719 : en:00:38:24.719
00:41:57.056 : en:00:41:57.056
00:46:12.979 : en:00:46:12.979
00:49:57.786 : en:00:49:57.786
00:53:27.955 : en:00:53:27.955
00:57:43.126 : en:00:57:43.126
01:02:11.853 : en:01:02:11.853
01:05:48.903 : en:01:05:48.903
01:09:38.758 : en:01:09:38.758
01:14:16.994 : en:01:14:16.994
01:16:25.539 : en:01:16:25.539
01:19:26.929 : en:01:19:26.929
01:21:34.473 : en:01:21:34.473
01:23:51.902 : en:01:23:51.902
01:27:33.707 : en:01:27:33.707
01:30:48.234 : en:01:30:48.234
01:34:12.564 : en:01:34:12.564
01:41:17.697 : en:01:41:17.697




Скачать Хищники через торрент http://img11.lostpic.net/2018/08/04/11ca641660f19fc350c61e2098788a52.jpg Скачать, смотреть онлайн Хищники бесплантно в хорошем качестве Описание: Наемник Ройс невольно вынужден возглавить группу профессионалов, выполняющих загадочную миссию на неизвестной планете. За ... 10 10 7
Торрент: Зарегистрирован [2018-08-04 21:32] · скачан: 48 раз
Статус: √ проверено
Размер: 52.75 GB
Как cкачать? Как скачать Хищники через торрент | UTorrent

% Раздел Тема Автор DL S | L
Ultra HD (UHD: 2K, 4K, 8K) [ 190.41 GB ] Хищник | DUB | 2160p sheker187 Скачать
1 | 2
Фильмы 2010 [ 4.85 GB ] Хищники / Predators | AVO | DLRip-AVC, Dub, 5 x AVO, VO morfyi Скачать
1 | 0
Сборники (HD Video) [ 11.02 GB ] Хищник. Коллекция / Predator. Collection | DUB | BDRip 1080 nobana Скачать
2 | 0
Фильмы с авторской озвучкой [ 1.46 GB ] Хищники / Predators | AVO | BDRip killermax2013 Скачать
1 | 0
Ultra HD (UHD: 2K, 4K, 8K) [ 38.42 GB ] Хищники / Predators | Лицензия | 2160p bober100 Скачать
1 | 0
Фильмы [HD 720p, 1080p] (Хороший звук DUB, MVO) [ 5.27 GB ] Хищники / Predators | Лицензия | 1080p, HEVC (10bit Мичман37 Скачать
1 | 0
Сборники (HD Video) [ 35.71 GB ] Хищник. Трилогия / Predator. Trilogy | Дубляж | 1080p VintMosina Скачать
1 | 0

28-11-2019 20:33  


Отключить вcю реклaмy на сайте, в т.ч. и в плеере онлайн просмотра!

    Дорогой пользователь! Огромная просьба, поблагодарите релизера, оцените раздачу и оставьте свои комментарий, если Вы скачали Хищники через торрент бесплатно!!
    Комментировать посты могут только пользователи прошедшие не сложную регистрацию
    Показать сообщения:    


    Хищники через торрент
    Скачать бесплатно Хищники
    Хищники скачать торрент
    Хищники смотреть онлайн
    Cкачать фильм Хищники бесплатно
    Хищники скачать торрент в хорошем качестве
    Хищники смотреть онлайн бесплатно в хорошем качестве
    Вы не можете начинать темы
    Вы не можете отвечать на сообщения
    Вы не можете редактировать свои сообщения
    Вы не можете удалять свои сообщения
    Вы не можете голосовать в опросах
    Вы не можете прикреплять файлы к сообщениям
    Вы можете скачивать файлы
    Хищники / Predators [2010, Фантастика, боевик, UHD BD Remux 2160p] [HDR] 2xAVO+Дубляж [Лицензия] смотреть онлайн, скачать торрент picoco.icu