Достать ножи: Стеклянная луковица

MVO

Добыча

Дубляж

Уэнсдэй

1 сезон

Тор

Дубляж

13 клиническая

1 сезон

Жестокая ночь

MVO

Одни из нас

1 сезон

Deluxe

pack

Рекомендуем

30

Пиратка

ВАЖНО

ВАЖНО

Ghostwire

Пиратка

jed

RePack

nioh2

RePack

RDR2

RePack

NEED FOR SPEED™ PAYBACK

RePack

скачать торрент

Кинопоиск HD

Острые козырьки 6 сезон

6 сезон

FAR CRY 6

RePack

скачать торрент

Лицензия

скачать торрент

MVO

1

1 сезон

скачать торрент

1 сезон

скачать торрент

Лицензия

  

Хищник 2 / Predator 2 (Стивен Хопкинс) [1990, ужасы, фантастика, боевик, UHD BDRip 2160p] Дубляж + 2xAVO + DVO (ukr)

Хищник 2 через торрент piratbit.org

Размер: 34.25 GB | Добавлен: 4 года 6 мес. назад | Торрент скачан:9 раз
Смотреть онлайн | Скачать | Поддержите нас   

05-08-2018 14:47 Хищник 2 Скачать торрент  

Хищник 2 / Predator 2«Безмолвный. Невидимый. Непобедимый. Приходит в город, чтобы утолить свою жажду убивать»
Год выпуска: 1990
Страна: США
Жанр: ужасы, фантастика, боевик, триллер
Продолжительность: 01:48:00
Перевод: Дублированный, профессиональный двухголосый, авторский
Субтитры: Русские, английские, испанские, французские, немецкие
Режиссер: Стивен Хопкинс
В ролях:

Дэнни Гловер (Lieutenant Mike Harrigan), Гэри Бьюзи (Peter Keyes), Рубен Бладес (Danny Archuleta), Мария Кончита Алонсо (Leona Cantrell), Билл Пэкстон (Jerry Lambert), Роберт Дави (Captain Phil Heinemann), Кевин Питер Холл (The Predator), Адам Болдуин (Garber), Кент МакКорд (Captain B. Pilgrim), Мортон Дауни мл. (Tony Pope), Кэлвин Локхарт (King Willie), Стив Кэхэн (Sergeant)
Описание:
Харриган - крутой полицейский отдела по борьбе с наркотиками полиции Лос-Анджелеса. Ему поручено расследование серии убийств крупных криминальных авторитетов города. Все убийства совершены в извращенной форме и пахнут неприкрытым садизмом. После проведения экспертиз и расследований становится ясно, что убийство - дело рук существа, не имеющего ничего общего с человеком.
Рейтинг:

MPAA: R - Лицам до 17 лет обязательно присутствие взрослого
Качество: UHD BDRip 2160p
Формат: MKV
Видео: HEVC, HDR, 37.7 Mбит/с, 3840x2076, 23.976 Кадр/с
Аудио #1: Русский (DTS, 6 ch, 768 Кбит/с) - |Дубляж, Blu-ray CEE|
Аудио #2: Русский (DTS, 6 ch, 1510 Кбит/с)-|[AVO - А.Гаврилов]|
Аудио #3: Русский (АС3, 2 ch, 192 Кбит/с) - |[Дубляж - Студия им. М. Горького с VHS]|
Аудио #4: Русский (АС3, 2 ch, 192 Кбит/с) - |[AVO - Ю.Живов]|
Аудио #5: Украинский (АС3, 6 ch, 448 Кбит/с) - |[DVO - Украинский <1+1>]|
Аудио #6: Английский (DTS-HD MA, 6 ch, 4167 Кбит/с)
Аудио #7: Английский (AC3, 2 ch, 224 Кбит/с) - |Комментарии режиссёра|
Навигация по главам: есть
Арнольд Шварценеггер планировал сыграть в фильме, но, в конце концов, предпочел поработать над «Терминатором 2» (1991).
Среди трофеев Хищника можно заметить череп Чужого.
Идея включить череп Чужого в трофеи Хищника принадлежала Стэну Уинстону, который также работал над спецэффектами к «Чужим» (1986).
«Хищник 2» стал первым фильмом, получившим рейтинг «NC-17» (который был введен незадолго до премьеры картины) из-за огромного количества насилия на экране. Фильм перемонтировали более чем двадцать раз, для того чтобы получить рейтинг «R».
Сцена, в которой Хищник устраивает кровавую бойню в метро, снималась в огромном павильоне на студии «20th Century Fox». Непосредственно кадры с движущимся поездом снимались в Окланде, Калифорния.
Съёмки перестрелки в восточном Лос-Анджелесе заняли три дня.
Идеи внешнего облика оружия, используемого Хищником, принадлежат Стэну Уинстону, Стивену Хопкинсу и Лоуренсу Г. Поллу.
Съёмки сцены на скотобойне заняли четыре дня.
Следующие сцены были вырезаны из фильма:
1) Сюжетная линия, рассказывающая о беременности Леоны.
2) Сцена, в которой Дэнни Гловер преследует Хищника, была намного длиннее.
3) Бойня, которую учинил Хищник в метро.
Предполагалось, что события, показанные в фильме, будут происходить в Нью-Йорке, но из-за бюджетных ограничений место действия изменили на Лос-Анджелес. Сцена, в которой Хищник поднимает череп во время грозы, должна была происходить на крыше здания компании Chrysler.
Одну из ролей в фильме мог исполнить Патрик Суэйзи, но он не смог принять участия в проекте из-за травмы, полученной во время съёмок «Дома у дороги» (1989).
Звуки, которые издает Хищник, являются комбинацией звуков, кошек, тигров, львов и медведей.
Один из Хищников отдает герою Дэнни Гловера мушкет 1715 года. По словам сценаристов, это было сделано для того, чтобы оставить зацепку для продолжения, где действие происходило бы не в наше время, а несколько веков назад.
По словам сценаристов фильма, Джима и Джона Томасов, изначально не планировалось снимать продолжение «Хищника». Сиквел был запущен в производства после успешных продаж серии комиксов о космическом охотнике.
В основу ямайской бандитской группировки, показанной в фильме, легла настоящая банда, которая терроризировала Нью-Йорк и Канзас Сити в конце 1980-х гг.
В соответствующих фильмах Чужой, Хищник и Терминатор убивали персонажей Билла Пэкстона.
Одна из копий Хищника была украдена во время съёмок фильма.
Сценарий картины претерпел множество изменений. Например, изначально предполагалось, что вместо Кейса (Гари Бьюзи), будет Датч, персонаж Арнольда Шварценеггера из первого фильма. Но Арни не понравилась идея того, что действие будет происходить в городе, и он отказался от роли.
Фамилия Дэнни (Рубен Блейдс) – Архулета. Джей Том Архулета был помощником режиссера первого и второго фильмов о Хищнике.
Продюсеры предлагали Джону МакТирнану во второй раз занять режиссерское кресло, но он отказался.
Одну из ролей в картине исполнила Элпидия Каррильо, сыгравшая в «Хищнике» (1987) Анну. Её имя упоминается в финальных титрах, но в фильме заметить её очень сложно. Дело в том, что сцена с её участием была вырезана из картины. В этой сцене она рассказывает о событиях, произошедших в южно-американских джунглях. Не смотря на то, что сцену вырезали, Анна всё-таки появляется на экране. Видео с её участием можно заметить на мониторе в передвижном командном пункте Питера Кейса (Гари Бьюзи), когда он рассказывает о механизме самоуничтожения Хищника.
Хищники на борту корабля в конце фильма — баскетбольная команда НБА Лос-Анджелес Лейкерс.
Complete name : F:\Predator.2.1990.2160p.UHD.BluRay.X265-SpaceHD13.mkv
Format : Matroska
Format version : Version 4 / Version 2
File size : 34.2 GiB
Duration : 1 h 48 min
Overall bit rate : 45.4 Mb/s
Movie name : Predator.2.1990.2160p.UHD.BluRay.X265-SpaceHD13
Encoded date : UTC 2018-08-05 11:43:32
Writing application : mkvmerge v25.0.0 ('Prog Noir') 64-bit
Writing library : libebml v1.3.6 + libmatroska v1.4.9

Video
ID : 1
Format : HEVC
Format/Info : High Efficiency Video Coding
Commercial name : HDR10
Format profile : Main 10@L5.1@High
Codec ID : V_MPEGH/ISO/HEVC
Duration : 1 h 48 min
Bit rate : 37.7 Mb/s
Width : 3 840 pixels
Height : 2 076 pixels
Display aspect ratio : 1.85:1
Frame rate mode : Constant
Frame rate : 23.976 (24000/1001) FPS
Color space : YUV
Chroma subsampling : 4:2:0 (Type 2)
Bit depth : 10 bits
Bits/(Pixel*Frame) : 0.197
Stream size : 28.5 GiB (83%)
Title : Predator.2.1990.2160p.UHD.BluRay.X265-SpaceHD13
Writing library : x265 2.8+10-703eade86b53:[Windows][GCC 8.1.0][64 bit] 10bit
Encoding settings : cpuid=1111039 / frame-threads=4 / numa-pools=16 / wpp / no-pmode / no-pme / no-psnr / no-ssim / log-level=2 / input-csp=1 / input-res=3840x2076 / interlace=0 / total-frames=155378 / level-idc=51 / high-tier=1 / uhd-bd=0 / ref=4 / no-allow-non-conformance / repeat-headers / annexb / aud / hrd / info / hash=0 / no-temporal-layers / no-open-gop / min-keyint=24 / keyint=240 / gop-lookahead=0 / bframes=4 / b-adapt=2 / b-pyramid / bframe-bias=0 / rc-lookahead=25 / lookahead-slices=4 / scenecut=40 / radl=0 / no-intra-refresh / ctu=64 / min-cu-size=8 / rect / no-amp / max-tu-size=32 / tu-inter-depth=1 / tu-intra-depth=1 / limit-tu=0 / rdoq-level=2 / dynamic-rd=0.00 / no-ssim-rd / signhide / no-tskip / nr-intra=0 / nr-inter=0 / no-constrained-intra / no-strong-intra-smoothing / max-merge=3 / limit-refs=3 / limit-modes / me=3 / subme=3 / merange=57 / temporal-mvp / weightp / no-weightb / no-analyze-src-pics / deblock=-3:-3 / no-sao / no-sao-non-deblock / rd=4 / no-early-skip / rskip / no-fast-intra / no-tskip-fast / no-cu-lossless / no-b-intra / no-splitrd-skip / rdpenalty=0 / psy-rd=2.00 / psy-rdoq=1.00 / no-rd-refine / no-lossless / cbqpoffs=0 / crqpoffs=0 / rc=crf / crf=19.0 / qcomp=0.60 / qpstep=4 / stats-write=0 / stats-read=0 / vbv-maxrate=160000 / vbv-bufsize=160000 / vbv-init=0.9 / crf-max=0.0 / crf-min=0.0 / ipratio=1.40 / pbratio=1.30 / aq-mode=1 / aq-strength=1.00 / cutree / zone-count=0 / no-strict-cbr / qg-size=32 / no-rc-grain / qpmax=69 / qpmin=0 / no-const-vbv / sar=1 / overscan=0 / videoformat=5 / range=0 / colorprim=9 / transfer=16 / colormatrix=9 / chromaloc=1 / chromaloc-top=2 / chromaloc-bottom=2 / display-window=0 / master-display=G(13250,34500)B(7500,3000)R(34000,16000)WP(15635,16450)L(10000000,50) / max-cll=0,0 / min-luma=0 / max-luma=1023 / log2-max-poc-lsb=8 / vui-timing-info / vui-hrd-info / slices=1 / no-opt-qp-pps / no-opt-ref-list-length-pps / no-multi-pass-opt-rps / scenecut-bias=0.05 / no-opt-cu-delta-qp / no-aq-motion / hdr / hdr-opt / no-dhdr10-opt / no-idr-recovery-sei / analysis-reuse-level=5 / scale-factor=0 / refine-intra=0 / refine-inter=0 / refine-mv=0 / no-limit-sao / ctu-info=0 / no-lowpass-dct / refine-mv-type=0 / copy-pic=1 / max-ausize-factor=1.0 / no-dynamic-refine / no-single-sei
Default : Yes
Forced : No
Color range : Limited
Color primaries : BT.2020
Transfer characteristics : PQ
Matrix coefficients : BT.2020 non-constant
Mastering display color pri : Display P3
Mastering display luminance : min: 0.0050 cd/m2, max: 1000 cd/m2

Audio #1
ID : 2
Format : DTS
Format/Info : Digital Theater Systems
Codec ID : A_DTS
Duration : 1 h 48 min
Bit rate mode : Constant
Bit rate : 768 kb/s
Channel(s) : 6 channels
Channel positions : Front: L C R, Side: L R, LFE
Sampling rate : 48.0 kHz
Frame rate : 93.750 FPS (512 SPF)
Bit depth : 24 bits
Compression mode : Lossy
Stream size : 593 MiB (2%)
Title : Predator.2.1990.2160p.UHD.BluRay.X265-SpaceHD13[Дубляж - Blu-Ray]
Language : Russian
Default : Yes
Forced : Yes

Audio #2
ID : 3
Format : DTS
Format/Info : Digital Theater Systems
Codec ID : A_DTS
Duration : 1 h 48 min
Bit rate mode : Constant
Bit rate : 1 509 kb/s
Channel(s) : 6 channels
Channel positions : Front: L C R, Side: L R, LFE
Sampling rate : 48.0 kHz
Frame rate : 93.750 FPS (512 SPF)
Bit depth : 24 bits
Compression mode : Lossy
Stream size : 1.14 GiB (3%)
Title : Predator.2.1990.2160p.UHD.BluRay.X265-SpaceHD13[AVO - А.Гаврилов]
Language : Russian
Default : No
Forced : No

Audio #3
ID : 4
Format : AC-3
Format/Info : Audio Coding 3
Codec ID : A_AC3
Duration : 1 h 47 min
Bit rate mode : Constant
Bit rate : 192 kb/s
Channel(s) : 1 channel
Channel positions : Front: C
Sampling rate : 48.0 kHz
Frame rate : 31.250 FPS (1536 SPF)
Bit depth : 16 bits
Compression mode : Lossy
Stream size : 148 MiB (0%)
Title : Predator.2.1990.2160p.UHD.BluRay.X265-SpaceHD13[Дубляж - Студия им. М. Горького с VHS]
Language : Russian
Service kind : Complete Main
Default : No
Forced : No

Audio #4
ID : 5
Format : AC-3
Format/Info : Audio Coding 3
Codec ID : A_AC3
Duration : 1 h 47 min
Bit rate mode : Constant
Bit rate : 192 kb/s
Channel(s) : 2 channels
Channel positions : Front: L R
Sampling rate : 48.0 kHz
Frame rate : 31.250 FPS (1536 SPF)
Bit depth : 16 bits
Compression mode : Lossy
Stream size : 148 MiB (0%)
Title : Predator.2.1990.2160p.UHD.BluRay.X265-SpaceHD13[AVO - Ю.Живов]
Language : Russian
Service kind : Complete Main
Default : No
Forced : No

Audio #5
ID : 6
Format : AC-3
Format/Info : Audio Coding 3
Codec ID : A_AC3
Duration : 1 h 48 min
Bit rate mode : Constant
Bit rate : 448 kb/s
Channel(s) : 6 channels
Channel positions : Front: L C R, Side: L R, LFE
Sampling rate : 48.0 kHz
Frame rate : 31.250 FPS (1536 SPF)
Bit depth : 16 bits
Compression mode : Lossy
Stream size : 346 MiB (1%)
Title : Predator.2.1990.2160p.UHD.BluRay.X265-SpaceHD13[DVO - Украинский <1+1>]
Language : Ukrainian
Service kind : Complete Main
Default : No
Forced : No

Audio #6
ID : 7
Format : DTS
Format/Info : Digital Theater Systems
Format profile : MA / Core
Codec ID : A_DTS
Duration : 1 h 48 min
Bit rate mode : Variable / Constant
Bit rate : 4 167 kb/s / 1 509 kb/s
Channel(s) : 6 channels
Channel positions : Front: L C R, Side: L R, LFE
Sampling rate : 48.0 kHz
Frame rate : 93.750 FPS (512 SPF)
Bit depth : 24 bits
Compression mode : Lossless / Lossy
Stream size : 3.14 GiB (9%)
Title : Predator.2.1990.2160p.UHD.BluRay.X265-SpaceHD13
Language : English
Default : No
Forced : No

Audio #7
ID : 8
Format : AC-3
Format/Info : Audio Coding 3
Codec ID : A_AC3
Duration : 1 h 48 min
Bit rate mode : Constant
Bit rate : 224 kb/s
Channel(s) : 2 channels
Channel positions : Front: L R
Sampling rate : 48.0 kHz
Frame rate : 31.250 FPS (1536 SPF)
Bit depth : 16 bits
Compression mode : Lossy
Stream size : 173 MiB (0%)
Title : Predator.2.1990.2160p.UHD.BluRay.X265-SpaceHD13
Language : English
Service kind : Complete Main
Default : No
Forced : No

Text #1
ID : 9
Format : UTF-8
Codec ID : S_TEXT/UTF8
Codec ID/Info : UTF-8 Plain Text
Duration : 1 h 40 min
Bit rate : 41 b/s
Count of elements : 888
Stream size : 30.3 KiB (0%)
Title : Stripped SRT (not positioned)
Language : English
Default : No
Forced : No

Text #2
ID : 10
Format : UTF-8
Codec ID : S_TEXT/UTF8
Codec ID/Info : UTF-8 Plain Text
Duration : 1 h 40 min
Bit rate : 44 b/s
Count of elements : 1060
Stream size : 33.1 KiB (0%)
Title : SDH SRT (not positioned)
Language : English
Default : No
Forced : No

Text #3
ID : 11
Format : PGS
Muxing mode : zlib
Codec ID : S_HDMV/PGS
Codec ID/Info : Picture based subtitle format used on BDs/HD-DVDs
Duration : 1 h 40 min
Bit rate : 30.3 kb/s
Count of elements : 2120
Stream size : 21.9 MiB (0%)
Title : SDH
Language : English
Default : No
Forced : No

Text #4
ID : 12
Format : PGS
Muxing mode : zlib
Codec ID : S_HDMV/PGS
Codec ID/Info : Picture based subtitle format used on BDs/HD-DVDs
Duration : 1 h 42 min
Bit rate : 43.2 kb/s
Count of elements : 2050
Stream size : 31.6 MiB (0%)
Title : Commentary by director Stephen Hopkins
Language : English
Default : No
Forced : No

Text #5
ID : 13
Format : PGS
Muxing mode : zlib
Codec ID : S_HDMV/PGS
Codec ID/Info : Picture based subtitle format used on BDs/HD-DVDs
Duration : 1 h 42 min
Bit rate : 44.0 kb/s
Count of elements : 2016
Stream size : 32.3 MiB (0%)
Title : Commentary with writers Jim Thomas and John Thomas
Language : English
Default : No
Forced : No

Text #6
ID : 14
Format : PGS
Muxing mode : zlib
Codec ID : S_HDMV/PGS
Codec ID/Info : Picture based subtitle format used on BDs/HD-DVDs
Duration : 1 h 46 min
Bit rate : 20.2 kb/s
Count of elements : 1553
Stream size : 15.5 MiB (0%)
Language : French
Default : No
Forced : No

Text #7
ID : 15
Format : PGS
Muxing mode : zlib
Codec ID : S_HDMV/PGS
Codec ID/Info : Picture based subtitle format used on BDs/HD-DVDs
Duration : 1 h 47 min
Bit rate : 32.0 kb/s
Count of elements : 1662
Stream size : 24.7 MiB (0%)
Title : Commentary by director Stephen Hopkins
Language : French
Default : No
Forced : No

Text #8
ID : 16
Format : PGS
Muxing mode : zlib
Codec ID : S_HDMV/PGS
Codec ID/Info : Picture based subtitle format used on BDs/HD-DVDs
Duration : 1 h 47 min
Bit rate : 31.3 kb/s
Count of elements : 1600
Stream size : 24.0 MiB (0%)
Title : Commentary with writers Jim Thomas and John Thomas
Language : French
Default : No
Forced : No

Text #9
ID : 17
Format : PGS
Muxing mode : zlib
Codec ID : S_HDMV/PGS
Codec ID/Info : Picture based subtitle format used on BDs/HD-DVDs
Duration : 1 h 40 min
Bit rate : 31.5 kb/s
Count of elements : 1630
Stream size : 22.6 MiB (0%)
Language : Spanish
Default : No
Forced : No

Text #10
ID : 18
Format : PGS
Muxing mode : zlib
Codec ID : S_HDMV/PGS
Codec ID/Info : Picture based subtitle format used on BDs/HD-DVDs
Duration : 1 h 47 min
Bit rate : 21.5 kb/s
Count of elements : 1650
Stream size : 16.5 MiB (0%)
Language : Spanish
Default : No
Forced : No

Text #11
ID : 19
Format : PGS
Muxing mode : zlib
Codec ID : S_HDMV/PGS
Codec ID/Info : Picture based subtitle format used on BDs/HD-DVDs
Duration : 1 h 47 min
Bit rate : 33.1 kb/s
Count of elements : 1664
Stream size : 25.5 MiB (0%)
Title : Commentary by director Stephen Hopkins
Language : Spanish
Default : No
Forced : No

Text #12
ID : 20
Format : PGS
Muxing mode : zlib
Codec ID : S_HDMV/PGS
Codec ID/Info : Picture based subtitle format used on BDs/HD-DVDs
Duration : 1 h 47 min
Bit rate : 33.9 kb/s
Count of elements : 1602
Stream size : 26.1 MiB (0%)
Title : Commentary with writers Jim Thomas and John Thomas
Language : Spanish
Default : No
Forced : No

Text #13
ID : 21
Format : PGS
Muxing mode : zlib
Codec ID : S_HDMV/PGS
Codec ID/Info : Picture based subtitle format used on BDs/HD-DVDs
Duration : 1 h 40 min
Bit rate : 26.4 kb/s
Count of elements : 1236
Stream size : 18.9 MiB (0%)
Language : German
Default : No
Forced : No

Text #14
ID : 22
Format : PGS
Muxing mode : zlib
Codec ID : S_HDMV/PGS
Codec ID/Info : Picture based subtitle format used on BDs/HD-DVDs
Duration : 1 h 47 min
Bit rate : 37.1 kb/s
Count of elements : 1666
Stream size : 28.5 MiB (0%)
Title : Commentary by director Stephen Hopkins
Language : German
Default : No
Forced : No

Text #15
ID : 23
Format : PGS
Muxing mode : zlib
Codec ID : S_HDMV/PGS
Codec ID/Info : Picture based subtitle format used on BDs/HD-DVDs
Duration : 1 h 47 min
Bit rate : 34.7 kb/s
Count of elements : 1598
Stream size : 26.7 MiB (0%)
Title : Commentary with writers Jim Thomas and John Thomas
Language : German
Default : No
Forced : No

Text #16
ID : 24
Format : PGS
Muxing mode : zlib
Codec ID : S_HDMV/PGS
Codec ID/Info : Picture based subtitle format used on BDs/HD-DVDs
Duration : 1 h 40 min
Bit rate : 23.6 kb/s
Count of elements : 1406
Stream size : 16.9 MiB (0%)
Language : Russian
Default : Yes
Forced : No

Text #17
ID : 25
Format : PGS
Muxing mode : zlib
Codec ID : S_HDMV/PGS
Codec ID/Info : Picture based subtitle format used on BDs/HD-DVDs
Duration : 1 h 31 min
Bit rate : 298 b/s
Count of elements : 24
Stream size : 200 KiB (0%)
Language : Russian
Default : No
Forced : No

Text #18
ID : 26
Format : PGS
Muxing mode : zlib
Codec ID : S_HDMV/PGS
Codec ID/Info : Picture based subtitle format used on BDs/HD-DVDs
Duration : 1 h 42 min
Bit rate : 41.7 kb/s
Count of elements : 2049
Stream size : 30.5 MiB (0%)
Language : Russian
Default : No
Forced : No

Text #19
ID : 27
Format : PGS
Muxing mode : zlib
Codec ID : S_HDMV/PGS
Codec ID/Info : Picture based subtitle format used on BDs/HD-DVDs
Duration : 1 h 42 min
Bit rate : 42.9 kb/s
Count of elements : 2008
Stream size : 31.5 MiB (0%)
Language : Russian
Default : No
Forced : No

Menu
00:00:00.000 : en:00:00:00.000
00:03:11.608 : en:00:03:11.608
00:07:26.112 : en:00:07:26.112
00:11:40.199 : en:00:11:40.199
00:14:05.178 : en:00:14:05.178
00:16:03.129 : en:00:16:03.129
00:18:57.762 : en:00:18:57.762
00:22:21.215 : en:00:22:21.215
00:25:48.547 : en:00:25:48.547
00:29:03.659 : en:00:29:03.659
00:30:19.985 : en:00:30:19.985
00:32:41.001 : en:00:32:41.001
00:36:39.656 : en:00:36:39.656
00:41:01.793 : en:00:41:01.793
00:43:00.203 : en:00:43:00.203
00:47:17.668 : en:00:47:17.668
00:51:13.612 : en:00:51:13.612
00:53:42.845 : en:00:53:42.845
00:58:14.199 : en:00:58:14.199
01:01:18.508 : en:01:01:18.508
01:04:46.382 : en:01:04:46.382
01:07:36.052 : en:01:07:36.052
01:15:41.662 : en:01:15:41.662
01:16:49.313 : en:01:16:49.313
01:19:23.008 : en:01:19:23.008
01:22:01.583 : en:01:22:01.583
01:26:10.707 : en:01:26:10.707
01:31:31.986 : en:01:31:31.986
01:33:38.112 : en:01:33:38.112
01:36:19.232 : en:01:36:19.232
01:37:54.368 : en:01:37:54.368
01:41:48.394 : en:01:41:48.394



Скачать Хищник 2 через торрент https://a.radikal.ru/a24/1808/35/dc5fdfa802aa.png Скачать, смотреть онлайн Хищник 2 бесплантно в хорошем качестве Описание: Харриган - крутой полицейский отдела по борьбе с наркотиками полиции Лос-Анджелеса. Ему поручено расследование серии убийств ... 10 10 4
Торрент: Зарегистрирован [2018-08-05 14:47] · скачан: 9 раз
Статус: √ проверено
Размер: 34.25 GB
Как cкачать? Как скачать Хищник 2 через торрент | UTorrent

% Раздел Тема Автор DL S | L
Ultra HD (UHD: 2K, 4K, 8K) [ 60.34 GB ] Хищник 2 / Predator 2 | DUB+3xMVO+3xDVO | 2160p bober100 Скачать
1 | 0
Ultra HD (UHD: 2K, 4K, 8K) [ 49.66 GB ] Хищник 2 / Predator 2 | DUB + MVO + AVO | 2160p sheker187 Скачать
1 | 0
Фильмы до 2000 г. [ 1.36 GB ] Хищник 2 / Predator 2 | | DVDRip NTL Скачать
1 | 0
Ultra HD (UHD: 2K, 4K, 8K) [ 33.87 GB ] Хищник 2 / Predator 2 | DUB | 2160p sheker187 Скачать
1 | 0
Фильмы (Blu-ray, BD-Remux, HDDVD) [ 33.25 GB ] Хищник 2 / Predator 2 | MVO | 1080p Ворон Скачать
1 | 0
Фильмы до 2000 г. [ 4.35 GB ] Хищник 2 / Predator 2 | DUB + DVO + 3 MVO + 5 AVO | BDRip Anonymous Скачать
1 | 0
Фильмы (DVD фильмы) [ 4.28 GB ] Хищник 2 / Predator 2 | | Хищник 2 / Predator 2 (Стивен Хопкинс amv77 Скачать
1 | 0

28-11-2019 20:33  


Отключить вcю реклaмy на сайте, в т.ч. и в плеере онлайн просмотра!

    Дорогой пользователь! Огромная просьба, поблагодарите релизера, оцените раздачу и оставьте свои комментарий, если Вы скачали Хищник 2 через торрент бесплатно!!
    Комментировать посты могут только пользователи прошедшие не сложную регистрацию
    Показать сообщения:    


    Хищник 2 через торрент
    Скачать бесплатно Хищник 2
    Хищник 2 скачать торрент
    Хищник 2 смотреть онлайн
    Cкачать фильм Хищник 2 бесплатно
    Хищник 2 скачать торрент в хорошем качестве
    Хищник 2 смотреть онлайн бесплатно в хорошем качестве
    Вы не можете начинать темы
    Вы не можете отвечать на сообщения
    Вы не можете редактировать свои сообщения
    Вы не можете удалять свои сообщения
    Вы не можете голосовать в опросах
    Вы не можете прикреплять файлы к сообщениям
    Вы можете скачивать файлы
    Хищник 2 / Predator 2 [1990, ужасы, фантастика, боевик, UHD BDRip 2160p] Дубляж + 2xAVO + DVO смотреть онлайн, скачать торрент picoco.icu