2 сезон

iTunes

WEBRip

1

2 сезон

iTunes

1 сезон

1 сезон

RePack

30

Новинка

ВАЖНО

ИГРА 18+

pack

RePack

MK11
pack

Легкие деньги

RePack

jed

RePack

fifa19

RePack

RDR2

RePack

NEED FOR SPEED™ PAYBACK

4 сезон

9 сезон

Бесстыжие 9 сезон

Все сериалы

все сериалы на PB.wtf

RePack

FAR CRY 5

Anonymous, добрый день, мы не успеваем собрать деньги на оплату серверов за февраль, помогите нам пожалуйста в это трудное время. В качестве благодарности мы отключим Вам всю рекламу на сайте (укажите свой ник в строку Ваше имя)!

×
  
Magnet ссылка

Клуб миллиардеров / Billionaire Boys Club (Джеймс Кокс) [2018, триллер, драма, биография, WEB-DLRip-AVC] [Ukr DUB] [Line] piratbit.org

Клуб миллиардеров через торрент piratbit.org

Размер: 1.23 GB | Добавлен: 2 года 6 мес. назад | Торрент скачан:97 раз
Скачать  

05-08-2018 18:47 Клуб миллиардеров Скачать торрент  

Клуб миллиардеров / Billionaire Boys Club
Год выпуска: 2018
Страна: США
Жанр: триллер, драма, биография
Продолжительность: 01:48:19
Перевод: Украинский (дублированный)
Субтитры: нет

Режиссер: Джеймс Кокс

В ролях: Тэрон Эджертон, Эмма Робертс, Сьюки Уотерхаус, Кевин Спейси, Кэри Элвис, Билли Лурд, Энсел Элгорт, Джереми Ирвин, Боким Вудбайн, Розанна Аркетт

Описание: Лос-Анджелес начала 1980-х. Компания молодых людей решает провернуть аферу, благоприятный исход которой сулит огромные деньги. Схема обогащения оказывается жизнеспособной и вместе с тем — смертельной.



Файл
Качество : WEB-DLRip-AVC
Формат видео : MKV
Видео : AVC, 720x304, 23.976 fps, ~1100 kbps avg
Звук 1: 48 kHz, AC3 Dolby Digital, 2 ch, ~192 kbps - Ukr DUB
Звук 2: 48 kHz, AC3 Dolby Digital, 6 ch, ~384 kbps - Eng

Релиз --
General
Unique ID : 267861892087018014351234578985883698706 (0xC98452EAA7D88EC7A164756E1E3A8612)
Complete name : E:\INTERNET\Billionaire Boys Club (2018) WEB-DLRip-AVC [UKR_ENG] [Hurtom].mkv
Format : Matroska
Format version : Version 4 / Version 2
File size : 1.23 GiB
Duration : 1 h 48 min
Overall bit rate : 1 625 kb/s
Encoded date : UTC 2018-08-04 16:16:46
Writing application : mkvmerge v25.0.0 ('Prog Noir') 32-bit
Writing library : libebml v1.3.6 + libmatroska v1.4.9

Video
ID : 1
Format : AVC
Format/Info : Advanced Video Codec
Format profile : High@L3.1
Format settings : CABAC / 5 Ref Frames
Format settings, CABAC : Yes
Format settings, RefFrames : 5 frames
Codec ID : V_MPEG4/ISO/AVC
Duration : 1 h 48 min
Bit rate : 1 016 kb/s
Nominal bit rate : 1 100 kb/s
Width : 720 pixels
Height : 304 pixels
Display aspect ratio : 2.40:1
Original display aspect rat : 2.40:1
Frame rate mode : Constant
Frame rate : 23.976 (24000/1001) FPS
Color space : YUV
Chroma subsampling : 4:2:0
Bit depth : 8 bits
Scan type : Progressive
Bits/(Pixel*Frame) : 0.194
Stream size : 787 MiB (63%)
Writing library : x264 core 148 r2795M aaa9aa8
Encoding settings : cabac=1 / ref=5 / deblock=1:-1:-1 / analyse=0x3:0x113 / me=umh / subme=9 / psy=1 / psy_rd=1.00:0.15 / mixed_ref=1 / me_range=16 / chroma_me=1 / trellis=2 / 8x8dct=1 / cqm=0 / deadzone=21,11 / fast_pskip=1 / chroma_qp_offset=-3 / threads=24 / lookahead_threads=2 / sliced_threads=0 / nr=0 / decimate=1 / interlaced=0 / bluray_compat=0 / constrained_intra=0 / bframes=3 / b_pyramid=2 / b_adapt=2 / b_bias=0 / direct=3 / weightb=1 / open_gop=0 / weightp=2 / keyint=250 / keyint_min=23 / scenecut=40 / intra_refresh=0 / rc_lookahead=50 / rc=abr / mbtree=1 / bitrate=1100 / ratetol=1.0 / qcomp=0.60 / qpmin=0 / qpmax=69 / qpstep=4 / ip_ratio=1.40 / aq=1:1.00
Language : English
Default : Yes
Forced : No

Audio #1
ID : 2
Format : AC-3
Format/Info : Audio Coding 3
Format settings, Endianness : Big
Codec ID : A_AC3
Duration : 1 h 48 min
Bit rate mode : Constant
Bit rate : 192 kb/s
Channel(s) : 2 channels
Channel positions : Front: L R
Sampling rate : 48.0 kHz
Frame rate : 31.250 FPS (1536 SPF)
Bit depth : 16 bits
Compression mode : Lossy
Stream size : 149 MiB (12%)
Title : DUB LINE
Language : Ukrainian
Service kind : Complete Main
Default : Yes
Forced : Yes

Audio #2
ID : 3
Format : AC-3
Format/Info : Audio Coding 3
Format settings, Endianness : Big
Codec ID : A_AC3
Duration : 1 h 48 min
Bit rate mode : Constant
Bit rate : 384 kb/s
Channel(s) : 6 channels
Channel positions : Front: L C R, Side: L R, LFE
Sampling rate : 48.0 kHz
Frame rate : 31.250 FPS (1536 SPF)
Bit depth : 16 bits
Compression mode : Lossy
Stream size : 298 MiB (24%)
Title : ORIGINAL
Language : English
Service kind : Complete Main
Default : No
Forced : No
скриншот  скриншот  скриншот  
piratbit.org



Скачать Клуб миллиардеров через торрент https://i101.fastpic.ru/big/2018/0805/ae/a7360f5f56ff1e070b344ab4f44d55ae.jpg Скачать фильм Клуб миллиардеров через торрент бесплантно в хорошем качестве Описание: Лос-Анджелес начала 1980-х. Компания молодых людей решает провернуть аферу, благоприятный исход которой сулит огромные деньги. ... 7 10 3
Info! Золотая раздача, скачанное не засчитывается.
Торрент: Зарегистрирован [2018-08-05 18:47] · скачан: 97 раз
Статус: T временная
Размер: 1.23 GB
Как cкачать? Как скачать Клуб миллиардеров через торрент | UTorrent

% Раздел Тема Автор DL S | L
Фильмы 2018 [DVDrip, WEB-DLRip, HDrip] (DUB, MVO) [ 1.46 GB ] Клуб миллиардеров / Billionaire Boys Club [2018 биография BDRip] - [] Twi7ter Скачать
1 | 0
Фильмы (Blu-ray, BD-Remux, HDDVD) [ 31.87 GB ] Клуб миллиардеров / Billionaire Boys Club [2018 биография Blu-ray 1080p] [Rus Transfer] DUB [] bober100 Скачать
1 | 0
Фильмы 2018 [DVDrip, WEB-DLRip, HDrip] (DUB, MVO) [ 746 MB ] Клуб миллиардеров / Billionaire Boys Club [2018 биография BDRip] DUB [] bober100 Скачать
1 | 0
Фильмы 2018 [DVDrip, WEB-DLRip, HDrip] (DUB, MVO) [ 2 GB ] Клуб миллиардеров / Billionaire Boys Club [2018 биография BDRip-AVC] DUB [] bober100 Скачать
1 | 0
Фильмы 2018 [DVDrip, WEB-DLRip, HDrip] (DUB, MVO) [ 1.46 GB ] Клуб миллиардеров / Billionaire Boys Club [2018 биография BDRip] DUB [ BD RUS] bober100 Скачать
1 | 0
Фильмы 2018 [DVDrip, WEB-DLRip, HDrip] (DUB, MVO) [ 1.95 GB ] Клуб миллиардеров / Billionaire Boys Club [2018 биография WEB-DLRip ] oleg8 Скачать
1 | 0
Фильмы 2018 [DVDrip, WEB-DLRip, HDrip] (DUB, MVO) [ 1.75 GB ] Клуб миллиардеров / Billionaire Boys Club [2018 биография WEB-DLRip-AVC] [AMZN Version] MVO [HDRezka Studio] + bober100 Скачать
1 | 0

28-11-2019 20:33  

Отключить всю рекламу на сайте

05-08-2018 20:56 Клуб миллиардеров Скачать торрент  

Оперативно. Спасибо. Советовали посмотретьpiratbit.org



    Дорогой пользователь! Огромная просьба, поблагодарите релизера, оцените раздачу и оставьте свои комментарий, если Вы скачали Клуб миллиардеров через торрент бесплатно! Внесите свою лепту в развитие PiratBit!
    Комментировать посты могут только пользователи прошедшие не сложную регистрацию
    Показать сообщения:    

    Клуб миллиардеров через торрент
    Скачать бесплатно Клуб миллиардеров
    Клуб миллиардеров скачать торрент
    Клуб миллиардеров смотреть онлайн
    Cкачать фильм Клуб миллиардеров бесплатно
    Клуб миллиардеров скачать торрент в хорошем качестве
    Клуб миллиардеров смотреть онлайн бесплатно в хорошем качестве


    Вы не можете начинать темы
    Вы не можете отвечать на сообщения
    Вы не можете редактировать свои сообщения
    Вы не можете удалять свои сообщения
    Вы не можете голосовать в опросах
    Вы не можете прикреплять файлы к сообщениям
    Вы можете скачивать файлы