Лицензия

MVO

1

1 сезон

Лицензия

Лицензия

13

MVO

1 сезон

Deluxe Edition

pack

Рекомендуем

30

Repack

ВАЖНО

ВАЖНО

Ghostwire

RePack

jed

RePack

fifa19

RePack

RDR2

RePack

NEED FOR SPEED™ PAYBACK

RePack

Кинопоиск HD

 Острые козырьки 6 сезон

6 сезон

FAR CRY 6

RePack

Лицензия

MVO

1

1 сезон

1 сезон

Лицензия

  

Чистое небо (Григорий Чухрай) [1961, СССР, драма, мелодрама, военный, SATRip от AVP Studio]

Чистое небо через торрент piratbit.org

Размер: 1.46 GB | Добавлен: 4 года 1 мес. назад | Торрент скачан:9 раз
Смотреть онлайн Чистое небо | Скачать   

06-08-2018 07:14 Чистое небо Скачать торрент  

Чистое небо
Страна: СССР
Производство: Мосфильм

Жанр: драма, мелодрама, военный
Год выпуска: 1961
Продолжительность: 01:43:52

Перевод: Не требуется
Cубтитры: нет
Оригинальная аудиодорожка: русский

Режиссер: Григорий Чухрай

В ролях:
Нина Дробышева, Евгений Урбанский, Наталья Кузьмина, Виталий Коняев, Георгий Куликов, Леонид Князев, Георгий Георгиу, Олег Табаков, Алик Крылов, Виталий Бондарев...
Об актёрах подробней

Описание:
Саша Львова (Нина Дробышева) полюбила летчика-испытателя Алексея Астахова (Евгений Урбанский) с первого взгляда еще восьмиклассницей, увидев его только раз. Потом они встретились во время войны, Саша только что закончила школу. Несколько дней счастья, а затем известие о героической смерти. Саша не поверила этому, ждала, одна воспитывала сына, и Алексей вернулся.

Источник: DVB
Качество видео: SATRip
Формат видео: AVI

Видео: 704х528 (4:3), 23,976 fps, XviD ~ 1554 kbps avg, 0.174 bit/pixel
Аудио: 48 kHz, Dolby Digital AC3 5.1, 448 kbps

Раздача от:
Общее
Полное имя : CHistoe.nebo.1961.SATRip_[New-team]_by_AVP_Studio.avi
Формат : AVI
Формат/Информация : Audio Video Interleave
Размер файла : 1,46 Гбайт
Продолжительность : 1 ч. 43 м.
Общий поток : 2011 Кбит/сек
Программа кодирования : VirtualDubMod 1.5.10.3 | www.virtualdub-fr.org || (build 2550/release)
Библиотека кодирования : VirtualDubMod build 2550/release

Видео
Идентификатор : 0
Формат : MPEG-4 Visual
Профиль формата : Advanced Simple@L5
Настройки формата : BVOP1 / Custom Matrix
Параметр BVOP формата : 1
Параметр QPel формата : Нет
Параметр GMC формата : Без точки перехода
Параметр матрицы формата : Выборочная
Идентификатор кодека : XVID
Идентификатор кодека/Подсказка : XviD
Продолжительность : 1 ч. 43 м.
Битрейт : 1554 Кбит/сек
Ширина : 704 пикселя
Высота : 528 пикселей
Соотношение сторон : 4:3
Частота кадров : 23,976 (24000/1001) кадра/сек
Цветовое пространство : YUV
Субдискретизация насыщенности : 4:2:0
Битовая глубина : 8 бит
Тип развёртки : Прогрессивная
Метод сжатия : С потерями
Бит/(Пиксели*Кадры) : 0.174
Размер потока : 1,13 Гбайт (77%)
Библиотека кодирования : XviD 73

Аудио
Идентификатор : 1
Формат : AC-3
Формат/Информация : Audio Coding 3
Идентификатор кодека : 2000
Продолжительность : 1 ч. 43 м.
Вид битрейта : Постоянный
Битрейт : 448 Кбит/сек
Каналы : 6 каналов
Расположение каналов : Front: L C R, Side: L R, LFE
Частота : 48,0 КГц
Частота кадров : 31,250 кадров/сек (1536 SPF)
Битовая глубина : 16 бит
Метод сжатия : С потерями
Размер потока : 333 Мбайт (22%)
Выравнивание : Разделение по промежуткам
Продолжительность промежутка : 42 мс. (1,00 видеокадр)
Время предзагрузки промежутка : 500 мс



Скачать Чистое небо через торрент http://picplus.ru/img/1808/04/013d925e.png Скачать, смотреть онлайн Чистое небо бесплантно в хорошем качестве Описание:Саша Львова (Нина Дробышева) полюбила летчика-испытателя Алексея Астахова (Евгений Урбанский) с первого взгляда еще ... 10 10 1
Info! Золотая раздача, скачанное не засчитывается.
Торрент: Зарегистрирован [2018-08-06 07:14] · скачан: 9 раз
Статус: √ проверено
Размер: 1.46 GB
Как cкачать? Как скачать Чистое небо через торрент | UTorrent

% Раздел Тема Автор DL S | L
Кино СССР [ 1.46 GB ] Чистое небо | | SATRip-AVC от AVP Studio AVP Studio Скачать
1 | 0
Кино СССР [ 745 MB ] Чистое небо | | SATRip от AVP Studio AVP Studio Скачать
1 | 0

28-11-2019 20:33  

Отключить вcю реклaмy на сайте

    Дорогой пользователь! Огромная просьба, поблагодарите релизера, оцените раздачу и оставьте свои комментарий, если Вы скачали Чистое небо через торрент бесплатно!!
    Комментировать посты могут только пользователи прошедшие не сложную регистрацию
    Показать сообщения:    


    Чистое небо через торрент
    Скачать бесплатно Чистое небо
    Чистое небо скачать торрент
    Чистое небо смотреть онлайн
    Cкачать фильм Чистое небо бесплатно
    Чистое небо скачать торрент в хорошем качестве
    Чистое небо смотреть онлайн бесплатно в хорошем качестве
    Вы не можете начинать темы
    Вы не можете отвечать на сообщения
    Вы не можете редактировать свои сообщения
    Вы не можете удалять свои сообщения
    Вы не можете голосовать в опросах
    Вы не можете прикреплять файлы к сообщениям
    Вы можете скачивать файлы