Достать ножи: Стеклянная луковица

MVO

Добыча

Дубляж

Уэнсдэй

1 сезон

Тор

Дубляж

13 клиническая

1 сезон

Жестокая ночь

MVO

Одни из нас

1 сезон

Deluxe

pack

Рекомендуем

30

Пиратка

ВАЖНО

ВАЖНО

Ghostwire

Пиратка

jed

RePack

nioh2

RePack

RDR2

RePack

NEED FOR SPEED™ PAYBACK

RePack

скачать торрент

Кинопоиск HD

Острые козырьки 6 сезон

6 сезон

FAR CRY 6

RePack

скачать торрент

Лицензия

скачать торрент

MVO

1

1 сезон

скачать торрент

1 сезон

скачать торрент

Лицензия

  

Хищник 2 / Predator 2 (Стивен Хопкинс) [1990, ужасы, фантастика, боевик, UHD BDRemux 2160p] [HDR] 2xDUB+3xMVO+3xDVO (rus) +2xDVO (ukr) +6xAVO

Хищник 2 через торрент piratbit.org

Размер: 60.34 GB | Добавлен: 4 года 6 мес. назад | Торрент скачан:41 раз
Смотреть онлайн | Скачать | Поддержите нас   

06-08-2018 15:43 Хищник 2 Скачать торрент  

Хищник 2 / Predator 2«Безмолвный. Невидимый. Непобедимый. Приходит в город, чтобы утолить свою жажду убивать»
Год выпуска: 1990
Страна: США
Жанр: ужасы, фантастика, боевик, триллер
Продолжительность: 01:48:00
Перевод: Дублированный, Профессиональный многоголосый, Профессиональный двухголосый, Авторский
Субтитры: русские (форсированные, полные, комментарии), английские
Режиссер: Стивен Хопкинс
В ролях:

Дэнни Гловер (Lieutenant Mike Harrigan), Гэри Бьюзи (Peter Keyes), Рубен Бладес (Danny Archuleta), Мария Кончита Алонсо (Leona Cantrell), Билл Пэкстон (Jerry Lambert), Роберт Дави (Captain Phil Heinemann), Кевин Питер Холл (The Predator), Адам Болдуин (Garber), Кент МакКорд (Captain B. Pilgrim), Мортон Дауни мл. (Tony Pope), Кэлвин Локхарт (King Willie), Стив Кэхэн (Sergeant)
Описание:

Харриган - крутой полицейский отдела по борьбе с наркотиками полиции Лос-Анджелеса. Ему поручено расследование серии убийств крупных криминальных авторитетов города. Все убийства совершены в извращенной форме и пахнут неприкрытым садизмом. После проведения экспертиз и расследований становится ясно, что убийство - дело рук существа, не имеющего ничего общего с человеком.
Рейтинг:

MPAA: R - Лицам до 17 лет обязательно присутствие взрослого
Качество: UHD BDRemux 2160p | HDR
Формат: MKV

Видео: HEVC, 3840x2160 (16:9), 23.976 fps, 59.1 Mb/s (0.297 bit/pixel)
Аудио#1: DTS, 48.0 kHz, 6 ch, 768 kb/s, CBR (Russian) | Дублированный |
Аудио#2: AC-3, 48.0 kHz, 6 ch, 448 kb/s, CBR (Russian) | Дублированный |
Аудио#3: AC-3, 48.0 kHz, 1 ch, 192 kb/s, CBR (Russian) | Дублированный К.С. им. Горького |
Аудио#4: DTS, 48.0 kHz, 6 ch, 768 kb/s, CBR (Russian) | Профессиональный многоголосый, R5 |
Аудио#5: AC-3, 48.0 kHz, 6 ch, 384 kb/s, CBR (Russian) | Профессиональный многоголосый, Киномания |
Аудио#6: AC-3, 48.0 kHz, 2 ch, 192 kb/s, CBR (Russian) | Профессиональный многоголосый, ОРТ |
Аудио#7: DTS MA 48.0 kHz, 6 ch, 4 416 kb/s (Russian) | Профессиональный двухголосый П.Гланц и И.Королева |
Аудио#8: AC-3, 48.0 kHz, 2 ch, 192 kb/s, CBR (Russian) | Профессиональный двухголосый, НТВ |
Аудио#9: AC-3, 48.0 kHz, 2 ch, 192 kb/s, CBR (Russian) | Профессиональный двухголосый, Премьер Видео Фильм |
Аудио#10: DTS MA, 48.0 kHz, 6 ch, 4 414 kb/s (Russian) | Авторский, А.Гаврилов |
Аудио#11: DTS, 48.0 kHz, 6 ch, 1 509 kb/s, CBR (Russian) | Авторский, В.Горчаков |
Аудио#12: DTS, 48.0 kHz, 6 ch, 1 509 kb/s, CBR (Russian) | Авторский, В.Яковлев (Самарский) |
Аудио#13: AC-3, 48.0 kHz, 6 ch, 448 kb/s, CBR (Russian) | Авторский, К.Поздняков |
Аудио#14: AC-3, 48.0 kHz, 2 ch, 192 kb/s, CBR (Russian) | Авторский, Ю.Живов |
Аудио#15: AC-3, 48.0 kHz, 2 ch, 192 kb/s, CBR (Russian) | Авторский, А.Готлиб |
Аудио#16: AC-3, 48.0 kHz, 2 ch, 192 kb/s, CBR (Ukrainian) | Профессиональный двухголосый, 1+1 |
Аудио#17: AC-3, 48.0 kHz, 2 ch, 192 kb/s, CBR (Ukrainian) | Профессиональный двухголосый, ICTV |
Аудио#18: DTS MA , 48.0 kHz, 6 ch, 4 167 kb/s (English) | Original |
Аудио#19: AC-3, 48.0 kHz, 2 ch, 224 kb/s, CBR (English) | Commentary v.1|
Аудио#20: AC-3, 48.0 kHz, 2 ch, 224 kb/s, CBR (English) | Commentary v.2|
скриншот  скриншот  скриншот  скриншот  скриншот  

Общее
Уникальный идентификатор : 325774469998302155487652490641112459658 (0xF515E174CFE5837C21419ED0CAE2698A)
Полное имя : Predator.2.1990.UHD.BDRemux.2160p.HEVC.HDR.IVA(14xRUS.2xUKR.ENG).ExKinoRay.mkv
Формат : Matroska
Версия формата : Version 4 / Version 2
Размер файла : 60,3 Гбайт
Продолжительность : 1 ч. 48 м.
Общий поток : 80,0 Мбит/сек
Название фильма : Хищник 2/ Predator 2 ( 1990 ) UHD BDRemux | HDR, 4K | IVA(14xRUS.2xUKR.ENG) | ExKinoRay
Дата кодирования : UTC 2018-08-06 13:40:14
Программа кодирования : mkvmerge v25.0.0 ('Prog Noir') 64-bit
Библиотека кодирования : libebml v1.3.6 + libmatroska v1.4.9
Обложка : Yes
Attachments : cover

Видео
Идентификатор : 1
Формат : HEVC
Формат/Информация : High Efficiency Video Coding
Коммерческое название : HDR10
Профиль формата : Main 10@L5.1@High
Идентификатор кодека : V_MPEGH/ISO/HEVC
Продолжительность : 1 ч. 48 м.
Битрейт : 59,1 Мбит/сек
Ширина : 3840 пикселей
Высота : 2160 пикселей
Соотношение сторон : 16:9
Режим частоты кадров : Постоянный
Частота кадров : 23,976 (24000/1001) кадра/сек
Цветовое пространство : YUV
Субдискретизация насыщенности : 4:2:0 (Type 2)
Битовая глубина : 10 бит
Бит/(Пиксели*Кадры) : 0.297
Размер потока : 44,6 Гбайт (74%)
Заголовок : Predator.2.1990.UHD.BDRemux.2160p.HEVC.HDR
Язык : English
Default : Да
Forced : Нет
Цветовой диапазон : Limited
Основные цвета : BT.2020
Характеристики трансфера : PQ
Коэффициенты матрицы : BT.2020 non-constant
MasteringDisplay_ColorPrimaries : Display P3
MasteringDisplay_Luminance : min: 0.0050 cd/m2, max: 1000 cd/m2

Аудио #1
Идентификатор : 2
Формат : DTS
Формат/Информация : Digital Theater Systems
Идентификатор кодека : A_DTS
Продолжительность : 1 ч. 47 м.
Вид битрейта : Постоянный
Битрейт : 768 Кбит/сек
Каналы : 6 каналов
Расположение каналов : Front: L C R, Side: L R, LFE
Частота : 48,0 КГц
Частота кадров : 93,750 кадра/сек (512 SPF)
Битовая глубина : 24 бит
Метод сжатия : С потерями
Размер потока : 593 Мбайт (1%)
Заголовок : | Дублированный |
Язык : Russian
Default : Да
Forced : Нет

Аудио #2
Идентификатор : 3
Формат : AC-3
Формат/Информация : Audio Coding 3
Идентификатор кодека : A_AC3
Продолжительность : 1 ч. 47 м.
Вид битрейта : Постоянный
Битрейт : 448 Кбит/сек
Каналы : 6 каналов
Расположение каналов : Front: L C R, Side: L R, LFE
Частота : 48,0 КГц
Частота кадров : 31,250 кадров/сек (1536 SPF)
Битовая глубина : 16 бит
Метод сжатия : С потерями
Размер потока : 346 Мбайт (1%)
Заголовок : | Дублированный |
Язык : Russian
ServiceKind : Complete Main
Default : Нет
Forced : Нет

Аудио #3
Идентификатор : 4
Формат : AC-3
Формат/Информация : Audio Coding 3
Идентификатор кодека : A_AC3
Продолжительность : 1 ч. 47 м.
Вид битрейта : Постоянный
Битрейт : 192 Кбит/сек
Каналы : 1 канал
Расположение каналов : Front: C
Частота : 48,0 КГц
Частота кадров : 31,250 кадров/сек (1536 SPF)
Битовая глубина : 16 бит
Метод сжатия : С потерями
Размер потока : 148 Мбайт (0%)
Заголовок : | Дублированный К.С. им. Горького |
Язык : Russian
ServiceKind : Complete Main
Default : Нет
Forced : Нет

Аудио #4
Идентификатор : 5
Формат : DTS
Формат/Информация : Digital Theater Systems
Идентификатор кодека : A_DTS
Продолжительность : 1 ч. 47 м.
Вид битрейта : Постоянный
Битрейт : 768 Кбит/сек
Каналы : 6 каналов
Расположение каналов : Front: L C R, Side: L R, LFE
Частота : 48,0 КГц
Частота кадров : 93,750 кадра/сек (512 SPF)
Битовая глубина : 24 бит
Метод сжатия : С потерями
Размер потока : 593 Мбайт (1%)
Заголовок : | MVO, R5 |
Язык : Russian
Default : Нет
Forced : Нет

Аудио #5
Идентификатор : 6
Формат : AC-3
Формат/Информация : Audio Coding 3
Идентификатор кодека : A_AC3
Продолжительность : 1 ч. 47 м.
Вид битрейта : Постоянный
Битрейт : 384 Кбит/сек
Каналы : 6 каналов
Расположение каналов : Front: L C R, Side: L R, LFE
Частота : 48,0 КГц
Частота кадров : 31,250 кадров/сек (1536 SPF)
Битовая глубина : 16 бит
Метод сжатия : С потерями
Размер потока : 297 Мбайт (0%)
Заголовок : | MVO, Киномания |
Язык : Russian
ServiceKind : Complete Main
Default : Нет
Forced : Нет

Аудио #6
Идентификатор : 7
Формат : AC-3
Формат/Информация : Audio Coding 3
Идентификатор кодека : A_AC3
Продолжительность : 1 ч. 47 м.
Вид битрейта : Постоянный
Битрейт : 192 Кбит/сек
Каналы : 2 канала
Расположение каналов : Front: L R
Частота : 48,0 КГц
Частота кадров : 31,250 кадров/сек (1536 SPF)
Битовая глубина : 16 бит
Метод сжатия : С потерями
Размер потока : 148 Мбайт (0%)
Заголовок : | MVO, ОРТ |
Язык : Russian
ServiceKind : Complete Main
Default : Нет
Forced : Нет

Аудио #7
Идентификатор : 8
Формат : DTS
Формат/Информация : Digital Theater Systems
Профиль формата : MA / Core
Идентификатор кодека : A_DTS
Продолжительность : 1 ч. 47 м.
Вид битрейта : Переменный / Постоянный
Битрейт : 4416 Кбит/сек / 1509 Кбит/сек
Каналы : 6 каналов
Расположение каналов : Front: L C R, Side: L R, LFE
Частота : 48,0 КГц
Частота кадров : 93,750 кадра/сек (512 SPF)
Битовая глубина : 24 бит
Метод сжатия : Без потерь / Lossy
Размер потока : 3,33 Гбайт (6%)
Заголовок : | DVO П.Гланц и И.Королева |
Язык : Russian
Default : Нет
Forced : Нет

Аудио #8
Идентификатор : 9
Формат : AC-3
Формат/Информация : Audio Coding 3
Идентификатор кодека : A_AC3
Продолжительность : 1 ч. 47 м.
Вид битрейта : Постоянный
Битрейт : 192 Кбит/сек
Каналы : 2 канала
Расположение каналов : Front: L R
Частота : 48,0 КГц
Частота кадров : 31,250 кадров/сек (1536 SPF)
Битовая глубина : 16 бит
Метод сжатия : С потерями
Размер потока : 148 Мбайт (0%)
Заголовок : | DVO, НТВ |
Язык : Russian
ServiceKind : Complete Main
Default : Нет
Forced : Нет

Аудио #9
Идентификатор : 10
Формат : AC-3
Формат/Информация : Audio Coding 3
Идентификатор кодека : A_AC3
Продолжительность : 1 ч. 47 м.
Вид битрейта : Постоянный
Битрейт : 192 Кбит/сек
Каналы : 2 канала
Расположение каналов : Front: L R
Частота : 48,0 КГц
Частота кадров : 31,250 кадров/сек (1536 SPF)
Битовая глубина : 16 бит
Метод сжатия : С потерями
Размер потока : 148 Мбайт (0%)
Заголовок : | DVO, Премьер Видео Фильм |
Язык : Russian
ServiceKind : Complete Main
Default : Нет
Forced : Нет

Аудио #10
Идентификатор : 11
Формат : DTS
Формат/Информация : Digital Theater Systems
Профиль формата : MA / Core
Идентификатор кодека : A_DTS
Продолжительность : 1 ч. 47 м.
Вид битрейта : Переменный / Постоянный
Битрейт : 4414 Кбит/сек / 1509 Кбит/сек
Каналы : 6 каналов
Расположение каналов : Front: L C R, Side: L R, LFE
Частота : 48,0 КГц
Частота кадров : 93,750 кадра/сек (512 SPF)
Битовая глубина : 24 бит
Метод сжатия : Без потерь / Lossy
Размер потока : 3,33 Гбайт (6%)
Заголовок : | AVO, А.Гаврилов |
Язык : Russian
Default : Нет
Forced : Нет

Аудио #11
Идентификатор : 12
Формат : DTS
Формат/Информация : Digital Theater Systems
Идентификатор кодека : A_DTS
Продолжительность : 1 ч. 48 м.
Вид битрейта : Постоянный
Битрейт : 1509 Кбит/сек
Каналы : 6 каналов
Расположение каналов : Front: L C R, Side: L R, LFE
Частота : 48,0 КГц
Частота кадров : 93,750 кадра/сек (512 SPF)
Битовая глубина : 24 бит
Метод сжатия : С потерями
Размер потока : 1,14 Гбайт (2%)
Заголовок : | AVO, В.Горчаков |
Язык : Russian
Default : Нет
Forced : Нет

Аудио #12
Идентификатор : 13
Формат : DTS
Формат/Информация : Digital Theater Systems
Идентификатор кодека : A_DTS
Продолжительность : 1 ч. 48 м.
Вид битрейта : Постоянный
Битрейт : 1509 Кбит/сек
Каналы : 6 каналов
Расположение каналов : Front: L C R, Side: L R, LFE
Частота : 48,0 КГц
Частота кадров : 93,750 кадра/сек (512 SPF)
Битовая глубина : 24 бит
Метод сжатия : С потерями
Размер потока : 1,14 Гбайт (2%)
Заголовок : | AVO, В.Яковлев (Самарский) |
Язык : Russian
Default : Нет
Forced : Нет

Аудио #13
Идентификатор : 14
Формат : AC-3
Формат/Информация : Audio Coding 3
Идентификатор кодека : A_AC3
Продолжительность : 1 ч. 47 м.
Вид битрейта : Постоянный
Битрейт : 448 Кбит/сек
Каналы : 6 каналов
Расположение каналов : Front: L C R, Side: L R, LFE
Частота : 48,0 КГц
Частота кадров : 31,250 кадров/сек (1536 SPF)
Битовая глубина : 16 бит
Метод сжатия : С потерями
Размер потока : 346 Мбайт (1%)
Заголовок : | AVO, К.Поздняков |
Язык : Russian
ServiceKind : Complete Main
Default : Нет
Forced : Нет

Аудио #14
Идентификатор : 15
Формат : AC-3
Формат/Информация : Audio Coding 3
Идентификатор кодека : A_AC3
Продолжительность : 1 ч. 47 м.
Вид битрейта : Постоянный
Битрейт : 192 Кбит/сек
Каналы : 2 канала
Расположение каналов : Front: L R
Частота : 48,0 КГц
Частота кадров : 31,250 кадров/сек (1536 SPF)
Битовая глубина : 16 бит
Метод сжатия : С потерями
Размер потока : 148 Мбайт (0%)
Заголовок : | AVO, Ю.Живов |
Язык : Russian
ServiceKind : Complete Main
Default : Нет
Forced : Нет

Аудио #15
Идентификатор : 16
Формат : AC-3
Формат/Информация : Audio Coding 3
Идентификатор кодека : A_AC3
Продолжительность : 1 ч. 47 м.
Вид битрейта : Постоянный
Битрейт : 192 Кбит/сек
Каналы : 2 канала
Расположение каналов : Front: L R
Частота : 48,0 КГц
Частота кадров : 31,250 кадров/сек (1536 SPF)
Битовая глубина : 16 бит
Метод сжатия : С потерями
Размер потока : 148 Мбайт (0%)
Заголовок : | AVO, А.Готлиб |
Язык : Russian
ServiceKind : Complete Main
Default : Нет
Forced : Нет

Аудио #16
Идентификатор : 17
Формат : AC-3
Формат/Информация : Audio Coding 3
Идентификатор кодека : A_AC3
Продолжительность : 1 ч. 48 м.
Вид битрейта : Постоянный
Битрейт : 192 Кбит/сек
Каналы : 2 канала
Расположение каналов : Front: L R
Частота : 48,0 КГц
Частота кадров : 31,250 кадров/сек (1536 SPF)
Битовая глубина : 16 бит
Метод сжатия : С потерями
Размер потока : 148 Мбайт (0%)
Заголовок : | DVO, 1+1 |
Язык : Ukrainian
ServiceKind : Complete Main
Default : Нет
Forced : Нет

Аудио #17
Идентификатор : 18
Формат : AC-3
Формат/Информация : Audio Coding 3
Идентификатор кодека : A_AC3
Продолжительность : 1 ч. 47 м.
Вид битрейта : Постоянный
Битрейт : 192 Кбит/сек
Каналы : 2 канала
Расположение каналов : Front: L R
Частота : 48,0 КГц
Частота кадров : 31,250 кадров/сек (1536 SPF)
Битовая глубина : 16 бит
Метод сжатия : С потерями
Размер потока : 148 Мбайт (0%)
Заголовок : | DVO, ICTV |
Язык : Ukrainian
ServiceKind : Complete Main
Default : Нет
Forced : Нет

Аудио #18
Идентификатор : 19
Формат : DTS
Формат/Информация : Digital Theater Systems
Профиль формата : MA / Core
Идентификатор кодека : A_DTS
Продолжительность : 1 ч. 48 м.
Вид битрейта : Переменный / Постоянный
Битрейт : 4167 Кбит/сек / 1509 Кбит/сек
Каналы : 6 каналов
Расположение каналов : Front: L C R, Side: L R, LFE
Частота : 48,0 КГц
Частота кадров : 93,750 кадра/сек (512 SPF)
Битовая глубина : 24 бит
Метод сжатия : Без потерь / Lossy
Размер потока : 3,14 Гбайт (5%)
Заголовок : | Original |
Язык : English
Default : Нет
Forced : Нет

Аудио #19
Идентификатор : 20
Формат : AC-3
Формат/Информация : Audio Coding 3
Идентификатор кодека : A_AC3
Продолжительность : 1 ч. 48 м.
Вид битрейта : Постоянный
Битрейт : 224 Кбит/сек
Каналы : 2 канала
Расположение каналов : Front: L R
Частота : 48,0 КГц
Частота кадров : 31,250 кадров/сек (1536 SPF)
Битовая глубина : 16 бит
Метод сжатия : С потерями
Размер потока : 173 Мбайт (0%)
Заголовок : | Commentary v.1|
Язык : English
ServiceKind : Complete Main
Default : Нет
Forced : Нет

Аудио #20
Идентификатор : 21
Формат : AC-3
Формат/Информация : Audio Coding 3
Идентификатор кодека : A_AC3
Продолжительность : 1 ч. 48 м.
Вид битрейта : Постоянный
Битрейт : 224 Кбит/сек
Каналы : 2 канала
Расположение каналов : Front: L R
Частота : 48,0 КГц
Частота кадров : 31,250 кадров/сек (1536 SPF)
Битовая глубина : 16 бит
Метод сжатия : С потерями
Размер потока : 173 Мбайт (0%)
Заголовок : | Commentary v.2|
Язык : English
ServiceKind : Complete Main
Default : Нет
Forced : Нет

Текст #1
Идентификатор : 22
Формат : UTF-8
Идентификатор кодека : S_TEXT/UTF8
Идентификатор кодека/Информация : UTF-8 Plain Text
Продолжительность : 1 ч. 31 м.
Битрейт : 0 бит/сек
ElementCount : 12
Размер потока : 465 байт (0%)
Заголовок : Forced
Язык : Russian
Default : Да
Forced : Да

Текст #2
Идентификатор : 23
Формат : UTF-8
Идентификатор кодека : S_TEXT/UTF8
Идентификатор кодека/Информация : UTF-8 Plain Text
Продолжительность : 1 ч. 40 м.
Битрейт : 63 бит/сек
ElementCount : 703
Размер потока : 46,3 Кбайт (0%)
Заголовок : Full
Язык : Russian
Default : Нет
Forced : Нет

Текст #3
Идентификатор : 24
Формат : UTF-8
Идентификатор кодека : S_TEXT/UTF8
Идентификатор кодека/Информация : UTF-8 Plain Text
Продолжительность : 1 ч. 46 м.
Битрейт : 66 бит/сек
ElementCount : 847
Размер потока : 51,6 Кбайт (0%)
Заголовок : Full (К.Поздняков)
Язык : Russian
Default : Нет
Forced : Нет

Текст #4
Идентификатор : 25
Формат : UTF-8
Идентификатор кодека : S_TEXT/UTF8
Идентификатор кодека/Информация : UTF-8 Plain Text
Продолжительность : 1 ч. 42 м.
Битрейт : 112 бит/сек
ElementCount : 1034
Размер потока : 84,2 Кбайт (0%)
Заголовок : Commentary v.1
Язык : Russian
Default : Нет
Forced : Нет

Текст #5
Идентификатор : 26
Формат : UTF-8
Идентификатор кодека : S_TEXT/UTF8
Идентификатор кодека/Информация : UTF-8 Plain Text
Продолжительность : 1 ч. 42 м.
Битрейт : 116 бит/сек
ElementCount : 1010
Размер потока : 87,1 Кбайт (0%)
Заголовок : Commentary v.2
Язык : Russian
Default : Нет
Forced : Нет

Текст #6
Идентификатор : 27
Формат : UTF-8
Идентификатор кодека : S_TEXT/UTF8
Идентификатор кодека/Информация : UTF-8 Plain Text
Продолжительность : 1 ч. 42 м.
Битрейт : 39 бит/сек
ElementCount : 847
Размер потока : 29,8 Кбайт (0%)
Заголовок : Full
Язык : English
Default : Нет
Forced : Нет

Меню
00:00:00.000 : en:War Zone
00:03:11.817 : en:A Force Of One
00:07:26.321 : en:Invisible Enemy
00:11:40.408 : en:Cut To Pieces
00:14:05.386 : en:Insubordination
00:16:03.337 : en:The Feds
00:18:57.970 : en:The New Guy
00:22:21.423 : en:Massacre
00:25:48.756 : en:The Devil Came for Them
00:29:03.867 : en:Keyes' Warning
00:30:20.193 : en:Surveillance
00:32:41.209 : en:Danny and the Demon
00:36:39.864 : en:Now It's Personal
00:41:02.001 : en:A Forensic Mystery
00:43:00.411 : en:King Willie
00:47:17.877 : en:Death of a King
00:51:13.821 : en:The Watcher
00:53:43.053 : en:Subway Assassin
00:58:14.408 : en:Mercy
01:01:18.717 : en:Path of the Predator
01:04:46.591 : en:The Alien Hunter
01:07:36.261 : en:Killer In the Cold
01:15:41.871 : en:Keyes Stands Alone
01:16:49.522 : en:Hunter and Hunted
01:19:23.217 : en:One Ugly...
01:22:01.792 : en:Man Against Alien
01:26:10.916 : en:First Aid
01:31:32.195 : en:The Trophy Room
01:33:38.321 : en:Death Blow
01:36:19.440 : en:The Honor Guard
01:37:54.577 : en:Last Man Standing
01:41:48.602 : en:End Titles




Скачать Хищник 2 через торрент https://a.radikal.ru/a34/1808/d0/8724b6a21ca6.jpg Скачать, смотреть онлайн Хищник 2 бесплантно в хорошем качестве Описание: Харриган - крутой полицейский отдела по борьбе с наркотиками полиции Лос-Анджелеса. Ему поручено расследование серии убийств ... 10 10 4
Торрент: Зарегистрирован [2018-08-06 15:43] · скачан: 41 раз
Статус: √ проверено
Размер: 60.34 GB
Как cкачать? Как скачать Хищник 2 через торрент | UTorrent

% Раздел Тема Автор DL S | L
Ultra HD (UHD: 2K, 4K, 8K) [ 34.25 GB ] Хищник 2 / Predator 2 | DUB + 2xAVO + DVO | 2160p sheker187 Скачать
1 | 0

28-11-2019 20:33  


Отключить вcю реклaмy на сайте, в т.ч. и в плеере онлайн просмотра!

    Дорогой пользователь! Огромная просьба, поблагодарите релизера, оцените раздачу и оставьте свои комментарий, если Вы скачали Хищник 2 через торрент бесплатно!!
    Комментировать посты могут только пользователи прошедшие не сложную регистрацию
    Показать сообщения:    


    Хищник 2 через торрент
    Скачать бесплатно Хищник 2
    Хищник 2 скачать торрент
    Хищник 2 смотреть онлайн
    Cкачать фильм Хищник 2 бесплатно
    Хищник 2 скачать торрент в хорошем качестве
    Хищник 2 смотреть онлайн бесплатно в хорошем качестве
    Вы не можете начинать темы
    Вы не можете отвечать на сообщения
    Вы не можете редактировать свои сообщения
    Вы не можете удалять свои сообщения
    Вы не можете голосовать в опросах
    Вы не можете прикреплять файлы к сообщениям
    Вы можете скачивать файлы
    Хищник 2 / Predator 2 [1990, ужасы, фантастика, боевик, UHD BDRemux 2160p] [HDR] 2xDUB+3xMVO+3xDVO +2xDVO +6xAVO смотреть онлайн, скачать торрент picoco.icu