Лицензия

MVO

1

1 сезон

Лицензия

Лицензия

13

MVO

1 сезон

Deluxe Edition

pack

Рекомендуем

30

Repack

ВАЖНО

ВАЖНО

Ghostwire

RePack

jed

RePack

fifa19

RePack

RDR2

RePack

NEED FOR SPEED™ PAYBACK

RePack

Кинопоиск HD

 Острые козырьки 6 сезон

6 сезон

FAR CRY 6

RePack

Лицензия

MVO

1

1 сезон

1 сезон

Лицензия

  

Евдокия (Татьяна Лиознова) [1961, СССР, драма, DVDRip от AVP Studio]

Евдокия через торрент piratbit.org

Размер: 1.46 GB | Добавлен: 4 года 1 мес. назад | Торрент скачан:12 раз
Смотреть онлайн Евдокия | Скачать   

09-08-2018 06:52 Евдокия Скачать торрент  

Евдокия
Страна: СССР
Производство: Киностудия им. М. Горького

Жанр: драма
Год выпуска: 1961
Продолжительность: 01:40:31

Перевод: Не требуется
Cубтитры: нет
Оригинальная аудиодорожка: русский

Режиссер: Татьяна Лиознова

В ролях:
Людмила Хитяева, Николай Лебедев (II), Люба Басова, Ольга Наровчатова, Алевтина Румянцева, Юра Ахмадулин, Евгений Ануфриев, Александр Барсов, Владимир Ивашов, Лена Павленко, Наталья Защипина, Миша Дьяков, Саша Галченков, Пётр Константинов, Вера Алтайская, Валентин Зубков, Иван Рыжов, Елена Максимова, М. Львова...
Об актёрах подробней

Описание:
В небольшом провинциальном городке живут рабочий по имени Евдоким (Николай Лебедев) и его жена - Евдокия (Людмила Хитяева). Своих детей у них нет, они воспитывают приемных. В молодости Евдокия любила Ахмета. Только картина над комодом - восточная красавица - напоминает о прошлом...

Источник: DVD9 R5
Качество видео: DVDRip
Формат видео: AVI

Видео: 704х528 (4:3), 25 fps, XviD ~ 1619 kbps avg, 0.174 bit/pixel
Аудио: 48 kHz, Dolby Digital AC3 5.1, 448 kbps

Раздача от:
Общее
Полное имя : Evdokiya.1961.DVDRip_[New-team]_by_AVP_Studio.avi
Формат : AVI
Формат/Информация : Audio Video Interleave
Размер файла : 1,46 Гбайт
Продолжительность : 1 ч. 40 м.
Общий поток : 2077 Кбит/сек
Программа кодирования : VirtualDubMod 1.5.10.3 | www.virtualdub-fr.org || (build 2550/release)
Библиотека кодирования : VirtualDubMod build 2550/release

Видео
Идентификатор : 0
Формат : MPEG-4 Visual
Профиль формата : Advanced Simple@L5
Настройки формата : BVOP1 / Custom Matrix
Параметр BVOP формата : 1
Параметр QPel формата : Нет
Параметр GMC формата : Без точки перехода
Параметр матрицы формата : Выборочная
Идентификатор кодека : XVID
Идентификатор кодека/Подсказка : XviD
Продолжительность : 1 ч. 40 м.
Битрейт : 1619 Кбит/сек
Ширина : 704 пикселя
Высота : 528 пикселей
Соотношение сторон : 4:3
Частота кадров : 25,000 кадров/сек
Цветовое пространство : YUV
Субдискретизация насыщенности : 4:2:0
Битовая глубина : 8 бит
Тип развёртки : Прогрессивная
Метод сжатия : С потерями
Бит/(Пиксели*Кадры) : 0.174
Размер потока : 1,14 Гбайт (78%)
Библиотека кодирования : XviD 73

Аудио
Идентификатор : 1
Формат : AC-3
Формат/Информация : Audio Coding 3
Идентификатор кодека : 2000
Продолжительность : 1 ч. 40 м.
Вид битрейта : Постоянный
Битрейт : 448 Кбит/сек
Каналы : 6 каналов
Расположение каналов : Front: L C R, Side: L R, LFE
Частота : 48,0 КГц
Частота кадров : 31,250 кадров/сек (1536 SPF)
Битовая глубина : 16 бит
Метод сжатия : С потерями
Размер потока : 322 Мбайт (22%)
Выравнивание : Разделение по промежуткам
Продолжительность промежутка : 40 мс. (1,00 видеокадр)
Время предзагрузки промежутка : 500 мс



Скачать Евдокия через торрент http://picplus.ru/img/1808/09/414528f7.png Скачать, смотреть онлайн Евдокия бесплантно в хорошем качестве Описание:В небольшом провинциальном городке живут рабочий по имени Евдоким (Николай Лебедев) и его жена - Евдокия (Людмила Хитяева). Своих ... 10 10 1
Info! Золотая раздача, скачанное не засчитывается.
Торрент: Зарегистрирован [2018-08-09 06:52] · скачан: 12 раз
Статус: √ проверено
Размер: 1.46 GB
Как cкачать? Как скачать Евдокия через торрент | UTorrent

% Раздел Тема Автор DL S | L
Кино СССР [ 1.46 GB ] Евдокия | | DVDRip-AVC от AVP Studio AVP Studio Скачать
1 | 0
Кино СССР [ 745 MB ] Евдокия | | DVDRip от AVP Studio AVP Studio Скачать
1 | 0

28-11-2019 20:33  

Отключить вcю реклaмy на сайте

    Дорогой пользователь! Огромная просьба, поблагодарите релизера, оцените раздачу и оставьте свои комментарий, если Вы скачали Евдокия через торрент бесплатно!!
    Комментировать посты могут только пользователи прошедшие не сложную регистрацию
    Показать сообщения:    


    Евдокия через торрент
    Скачать бесплатно Евдокия
    Евдокия скачать торрент
    Евдокия смотреть онлайн
    Cкачать фильм Евдокия бесплатно
    Евдокия скачать торрент в хорошем качестве
    Евдокия смотреть онлайн бесплатно в хорошем качестве
    Вы не можете начинать темы
    Вы не можете отвечать на сообщения
    Вы не можете редактировать свои сообщения
    Вы не можете удалять свои сообщения
    Вы не можете голосовать в опросах
    Вы не можете прикреплять файлы к сообщениям
    Вы можете скачивать файлы