Достать ножи: Стеклянная луковица

MVO

Добыча

Дубляж

Уэнсдэй

1 сезон

Тор

Дубляж

13 клиническая

1 сезон

Жестокая ночь

MVO

Одни из нас

1 сезон

Deluxe

pack

Рекомендуем

30

Пиратка

ВАЖНО

ВАЖНО

Ghostwire

Пиратка

jed

RePack

nioh2

RePack

RDR2

RePack

NEED FOR SPEED™ PAYBACK

RePack

скачать торрент

Кинопоиск HD

Острые козырьки 6 сезон

6 сезон

FAR CRY 6

RePack

скачать торрент

Лицензия

скачать торрент

MVO

1

1 сезон

скачать торрент

1 сезон

скачать торрент

Лицензия

  

Как это заканчивается / How It Ends (Дэвид М. Розенталь) [2018, фантастика, боевик, триллер, приключения, UHD WEBRip 2160p] 2xMVO [HDRezka, NewStudio]

Как это заканчивается через торрент piratbit.org

Размер: 24.51 GB | Добавлен: 4 года 5 мес. назад | Торрент скачан:73 раза
Смотреть онлайн | Скачать | Поддержите нас   

11-08-2018 19:43 Как это заканчивается Скачать торрент  

Как это заканчивается / How It Ends
Год выпуска: 2018
Страна: Китай, США
Жанр: фантастика, боевик, триллер, приключения
Продолжительность: 01:52:39
Перевод:

#1. Профессиональный (многоголосый) | HDRezka
#2. Профессиональный (многоголосый) | NewStudio

Субтитры: Русские (форсированные), английские

Режиссер: Дэвид М. Розенталь

rating

В ролях:

Тео Джеймс, Катерина Грэхэм, Керри Бише, Форест Уитакер, Грэйс Дав, Лэни МакОли, Марк О Брайэн, Нэнси Сорел, АрДжей Фезерстонхо, Джош Круддас

Описание:

По всей стране прогремели взрывы, возможно, землетрясения. Нет связи и электричества. Повсюду огонь и пепел. Люди кидаются друг на друга с оружием ради канистры с бензином. Во всем этом апокалиптическом безумии отчаянный муж пытается вернуться к беременной жене, пока не начался полнейший хаос.

Качество: UHD WEBRip 2160p
Формат: MKV

Видео: HEVC SDR, 29.4 Mбит/с, 3840x1608, 23.976 кадр/с
Аудио#1: Русский (AC3, 6 ch, 384 Кбит/с) / Профессиональный многоголосый (HDRezka)
Аудио#2: Русский (AC3, 6 ch, 384 Кбит/с) / Профессиональный многоголосый (NewStudio)
Аудио#3: Английский (E-AC3, 6 ch, 448 Кбит/с)
скриншот  скриншот  скриншот  скриншот  скриншот  

General
Unique ID : 95796923094245513290253442297388647627 (0x4811D0F783214978DA8EB4D8FDD0C4CB)
Complete name : C:UsersPublicVideosSample VideosFilmyHow.It.Ends.2018.2160p.SDR.NF.WEBRip.MediaClub.mkv
Format : Matroska
Format version : Version 4 / Version 2
File size : 24.5 GiB
Duration : 1 h 53 min
Overall bit rate : 31.0 Mb/s
Encoded date : UTC 2018-08-11 18:05:07
Writing application : mkvmerge v25.0.0 ('Prog Noir') 64-bit
Writing library : libebml v1.3.6 + libmatroska v1.4.9
Cover : Yes
Attachments : cover.jpg

Video
ID : 1
Format : HEVC
Format/Info : High Efficiency Video Coding
Format profile : Main 10@L5@Main
Codec ID : V_MPEGH/ISO/HEVC
Duration : 1 h 53 min
Bit rate : 29.4 Mb/s
Width : 3 840 pixels
Height : 1 608 pixels
Display aspect ratio : 2.40:1
Frame rate mode : Constant
Frame rate : 23.976 (24000/1001) FPS
Color space : YUV
Chroma subsampling : 4:2:0
Bit depth : 10 bits
Bits/(Pixel*Frame) : 0.198
Stream size : 23.2 GiB (95%)
Title : WEBRip.2160p.HEVC by Silverok
Writing library : x265 2.8+19-bcdc610cf5f0:[Windows][MSVC 1914][64 bit] 10bit
Encoding settings : cpuid=1111039 / frame-threads=3 / numa-pools=8 / wpp / no-pmode / no-pme / no-psnr / no-ssim / log-level=2 / input-csp=1 / input-res=3840x1608 / interlace=0 / total-frames=154571 / level-idc=0 / high-tier=1 / uhd-bd=0 / ref=3 / no-allow-non-conformance / repeat-headers / annexb / no-aud / no-hrd / info / hash=0 / no-temporal-layers / open-gop / min-keyint=23 / keyint=250 / gop-lookahead=0 / bframes=4 / b-adapt=2 / b-pyramid / bframe-bias=0 / rc-lookahead=20 / lookahead-slices=8 / scenecut=40 / radl=0 / no-intra-refresh / ctu=64 / min-cu-size=8 / no-rect / no-amp / max-tu-size=32 / tu-inter-depth=1 / tu-intra-depth=1 / limit-tu=0 / rdoq-level=0 / dynamic-rd=0.00 / no-ssim-rd / signhide / no-tskip / nr-intra=0 / nr-inter=0 / no-constrained-intra / no-strong-intra-smoothing / max-merge=2 / limit-refs=3 / no-limit-modes / me=1 / subme=2 / merange=57 / temporal-mvp / weightp / no-weightb / no-analyze-src-pics / deblock=3:3 / no-sao / no-sao-non-deblock / rd=3 / no-early-skip / rskip / no-fast-intra / no-tskip-fast / no-cu-lossless / no-b-intra / no-splitrd-skip / rdpenalty=0 / psy-rd=2.00 / psy-rdoq=0.00 / no-rd-refine / no-lossless / cbqpoffs=0 / crqpoffs=0 / rc=crf / crf=17.0 / qcomp=0.70 / qpstep=4 / stats-write=0 / stats-read=0 / ipratio=1.40 / pbratio=1.30 / aq-mode=1 / aq-strength=1.00 / cutree / zone-count=0 / no-strict-cbr / qg-size=32 / no-rc-grain / qpmax=69 / qpmin=0 / no-const-vbv / sar=0 / overscan=0 / videoformat=5 / range=0 / colorprim=1 / transfer=1 / colormatrix=1 / chromaloc=0 / display-window=0 / max-cll=0,0 / min-luma=0 / max-luma=1023 / log2-max-poc-lsb=8 / vui-timing-info / vui-hrd-info / slices=1 / no-opt-qp-pps / no-opt-ref-list-length-pps / no-multi-pass-opt-rps / scenecut-bias=0.05 / no-opt-cu-delta-qp / no-aq-motion / no-hdr / no-hdr-opt / no-dhdr10-opt / no-idr-recovery-sei / analysis-reuse-level=5 / scale-factor=0 / refine-intra=0 / refine-inter=0 / refine-mv=0 / no-limit-sao / ctu-info=0 / no-lowpass-dct / refine-mv-type=0 / copy-pic=1 / max-ausize-factor=1.0 / no-dynamic-refine / no-single-sei
Default : Yes
Forced : No
Color range : Limited
Color primaries : BT.709
Transfer characteristics : BT.709
Matrix coefficients : BT.709

Audio #1
ID : 2
Format : AC-3
Format/Info : Audio Coding 3
Codec ID : A_AC3
Duration : 1 h 52 min
Bit rate mode : Constant
Bit rate : 384 kb/s
Channel(s) : 6 channels
Channel positions : Front: L C R, Side: L R, LFE
Sampling rate : 48.0 kHz
Frame rate : 31.250 FPS (1536 SPF)
Bit depth : 16 bits
Compression mode : Lossy
Stream size : 309 MiB (1%)
Title : Профессиональный многоголосый (HDRezka)
Language : Russian
Service kind : Complete Main
Default : Yes
Forced : No

Audio #2
ID : 3
Format : AC-3
Format/Info : Audio Coding 3
Codec ID : A_AC3
Duration : 1 h 52 min
Bit rate mode : Constant
Bit rate : 384 kb/s
Channel(s) : 6 channels
Channel positions : Front: L C R, Side: L R, LFE
Sampling rate : 48.0 kHz
Frame rate : 31.250 FPS (1536 SPF)
Bit depth : 16 bits
Compression mode : Lossy
Stream size : 309 MiB (1%)
Title : Профессиональный многоголосый (NewStudio)
Language : Russian
Service kind : Complete Main
Default : No
Forced : No

Audio #3
ID : 4
Format : E-AC-3
Format/Info : Enhanced Audio Coding 3
Format profile : E-AC-3+Atmos / E-AC-3
Codec ID : A_EAC3
Duration : 1 h 52 min
Bit rate mode : Constant
Bit rate : 448 kb/s
Channel(s) : 15 objects / 6 channels
Channel positions : 15 objects / Front: L C R, Side: L R, LFE
Sampling rate : 48.0 kHz
Frame rate : 187.500 FPS (256 SPF)
Compression mode : Lossy
Stream size : 361 MiB (1%)
Language : English
Service kind : Complete Main
Default : No
Forced : No

Audio #4
ID : 5
Format : AC-3
Format/Info : Audio Coding 3
Codec ID : A_AC3
Duration : 1 h 53 min
Bit rate mode : Constant
Bit rate : 384 kb/s
Channel(s) : 6 channels
Channel positions : Front: L C R, Side: L R, LFE
Sampling rate : 48.0 kHz
Frame rate : 31.250 FPS (1536 SPF)
Bit depth : 16 bits
Compression mode : Lossy
Stream size : 311 MiB (1%)
Language : French
Service kind : Complete Main
Default : No
Forced : No

Text #1
ID : 6
Format : UTF-8
Codec ID : S_TEXT/UTF8
Codec ID/Info : UTF-8 Plain Text
Duration : 1 h 22 min
Bit rate : 0 b/s
Count of elements : 6
Stream size : 268 Bytes (0%)
Title : Forced
Language : Russian
Default : Yes
Forced : No

Text #2
ID : 7
Format : UTF-8
Codec ID : S_TEXT/UTF8
Codec ID/Info : UTF-8 Plain Text
Duration : 1 h 44 min
Bit rate : 43 b/s
Count of elements : 1061
Stream size : 33.1 KiB (0%)
Title : Full
Language : English
Default : No
Forced : No




Скачать Как это заканчивается через торрент http://img11.lostpic.net/2018/08/02/8991394756c233188f9a4777e40f4544.png Скачать, смотреть онлайн Как это заканчивается бесплантно в хорошем качестве Описание: По всей стране прогремели взрывы, возможно, землетрясения. Нет связи и электричества. Повсюду огонь и пепел. Люди кидаются друг ... 10 10 7
Торрент: Зарегистрирован [2018-08-11 19:43] · скачан: 73 раз
Статус: √ проверено
Размер: 24.51 GB
Как cкачать? Как скачать Как это заканчивается через торрент | UTorrent

% Раздел Тема Автор DL S | L
Фильмы (WEB-DL 720p, 1080p) [ 5.23 GB ] Как это заканчивается / How It Ends | Jaskier | 720p bober100 Скачать
1 | 0
Фильмы 2018 [DVDrip, WEB-DLRip, HDrip] (DUB, MVO) [ 1.46 GB ] Как это заканчивается / How It Ends | Jaskier | DLRip bober100 Скачать
1 | 0
Фильмы (WEB-DL 720p, 1080p) [ 10.65 GB ] Как это заканчивается / How It Ends | MVO | 1080p bober100 Скачать
1 | 0
T Фильмы (мультфильмы) cо спонсором показа (Новинки AVI/MKV) [ 1.37 GB ] Как это заканчивается / Как всё закончится / How It Ends | NewStudio | DLRip killermax2013 Скачать
1 | 0
Фильмы 2018 [DVDrip, WEB-DLRip, HDrip] (DUB, MVO) [ 1.46 GB ] Как это заканчивается / How It Ends | MVO | DLRip-AVC bober100 Скачать
1 | 0
Фильмы 2018 [DVDrip, WEB-DLRip, HDrip] (DUB, MVO) [ 1.46 GB ] Как это заканчивается / How It Ends | MVO | DLRip bober100 Скачать
1 | 0
Фильмы (WEB-DL 720p, 1080p) [ 5.23 GB ] Как это заканчивается / How It Ends | HDRezka Studio | 720p MVO lic007 Скачать
1 | 0

28-11-2019 20:33  


Отключить вcю реклaмy на сайте, в т.ч. и в плеере онлайн просмотра!

    Дорогой пользователь! Огромная просьба, поблагодарите релизера, оцените раздачу и оставьте свои комментарий, если Вы скачали Как это заканчивается через торрент бесплатно!!
    Комментировать посты могут только пользователи прошедшие не сложную регистрацию
    Показать сообщения:    


    Как это заканчивается через торрент
    Скачать бесплатно Как это заканчивается
    Как это заканчивается скачать торрент
    Как это заканчивается смотреть онлайн
    Cкачать фильм Как это заканчивается бесплатно
    Как это заканчивается скачать торрент в хорошем качестве
    Как это заканчивается смотреть онлайн бесплатно в хорошем качестве
    Вы не можете начинать темы
    Вы не можете отвечать на сообщения
    Вы не можете редактировать свои сообщения
    Вы не можете удалять свои сообщения
    Вы не можете голосовать в опросах
    Вы не можете прикреплять файлы к сообщениям
    Вы можете скачивать файлы
    Как это заканчивается / How It Ends [2018, фантастика, боевик, триллер, приключения, UHD WEBRip 2160p] 2xMVO [HDRezka, NewStudio] смотреть онлайн, скачать торрент picoco.icu