Достать ножи: Стеклянная луковица

MVO

Добыча

Дубляж

Уэнсдэй

1 сезон

Тор

Дубляж

13 клиническая

1 сезон

Жестокая ночь

MVO

Одни из нас

1 сезон

Deluxe

pack

Рекомендуем

30

Пиратка

ВАЖНО

ВАЖНО

Ghostwire

Пиратка

jed

RePack

nioh2

RePack

RDR2

RePack

NEED FOR SPEED™ PAYBACK

RePack

скачать торрент

Кинопоиск HD

Острые козырьки 6 сезон

6 сезон

FAR CRY 6

RePack

скачать торрент

Лицензия

скачать торрент

MVO

1

1 сезон

скачать торрент

1 сезон

скачать торрент

Лицензия

  

Трансформеры: Последний рыцарь / Transformers: The Last Knight (Майкл Бэй) [2017, Фантастика, боевик, триллер, приключения, UHD BDRemux 2160p] AVO [А. Гаврилов] +Дубляж [Лицензия]

Трансформеры: Последний рыцарь через торрент piratbit.org

Размер: 82.97 GB | Добавлен: 4 года 5 мес. назад | Торрент скачан:81 раз
Смотреть онлайн | Скачать | Поддержите нас   

15-08-2018 17:51 Трансформеры: Последний рыцарь Скачать торрент  

Трансформеры: Последний рыцарь / Transformers: The Last Knight«Спасется лишь один из миров»
Год выпуска: 2017
Страна: США
Жанр: Фантастика, боевик, триллер, приключения
Продолжительность: 02:34:31
Перевод:

#1. Дублированный | Лицензия
#2. Авторский | А. Гаврилов

Субтитры: Русские (forced, full), английские

Режиссер: Майкл Бэй

rating

В ролях:

Марк Уолберг, Энтони Хопкинс, Джош Дюамель, Лора Хэддок, Сантьяго Кабрера, Изабела Монер, Джеррод Кармайкл, Стэнли Туччи, Лиам Гэрриган, Мартин МакКриди, Роб Уиткомб (Percival), Маркус Фрэйзер (Gawain)
Описание:

Не столь отдаленное будущее. Оптимус Прайм улетел, но обещал вернуться. Отряды специально обученных людей ловят трансформеров по всему миру и передают тех в секретные лаборатории для бесчеловечных экспериментов. Оставшиеся на свободе сгустки говорящего металла прячутся на свалках и пунктах приема вторсырья. Тем временем выясняется, что к Земле приближается полуразложившаяся планета пришельцев, Мегатрон опять живее всех живых и ищет очередное "оружие возмездия", а российский президент спрятался в подземном бункере. В этих тяжелейших условиях разношерстной команде сборщиков металлического лома, английского лорда и профессора из Оксфорда при поддержке американской военщины необходимо не только предотвратить грядущий апокалипсис, но и устроить личную жизнь.

Качество: UHD BDRemux 2160p
Формат: MKV

Видео: MPEG-H HEVC HDR Video, 3840x2160, 62.1 Mbit/s, 23.976 fps
Аудио#1: 48 kHz, AC3, 5.1, 640 Kbps | Дублированный | RUS |
Аудио#2: 48 kHz, DTS-HD MA, 8 ch, 4565 | Дублированный сборка от Sergesha | RUS |
Аудио#3: 48 kHz, DTS-HD MA, 8 ch, 4500 Kbps | Авторский | ENG |
Аудио#4: 48 kHz, TrueHD, 7.1, 4298 Kbps | Оригинал | ENG |
Аудио#5: 48 kHz, AC3, 5.1, 640 Kbps | Оригинал | ENG |
скриншот  скриншот  скриншот  скриншот  скриншот  

скриншот  скриншот  скриншот  скриншот  скриншот  

Общее
Уникальный идентификатор : 332829023030520135610964220882942391656 (0xFA6489C6445366B45766573607737568)
Полное имя : H:\UHD\Трансформеры.Последний рыцарь.2017.UHD.BluRay.Remux.2160p.mkv
Формат : Matroska
Версия формата : Version 4 / Version 2
Размер файла : 83,0 Гбайт
Продолжительность : 2 ч. 34 м.
Режим общего битрейта : Переменный
Общий поток : 76,8 Мбит/сек
Дата кодирования : UTC 2018-08-09 18:00:34
Программа кодирования : mkvmerge v25.0.0 ('Prog Noir') 64-bit
Библиотека кодирования : libebml v1.3.6 + libmatroska v1.4.9
Attachments : poster.jpg

Видео
Идентификатор : 1
Формат : HEVC
Формат/Информация : High Efficiency Video Coding
Коммерческое название : HDR10
Профиль формата : Main 10@L5.1@High
Идентификатор кодека : V_MPEGH/ISO/HEVC
Продолжительность : 2 ч. 34 м.
Битрейт : 62,1 Мбит/сек
Ширина : 3840 пикселей
Высота : 2160 пикселей
Соотношение сторон : 16:9
Режим частоты кадров : Постоянный
Частота кадров : 23,976 (24000/1001) кадра/сек
Цветовое пространство : YUV
Субдискретизация насыщенности : 4:2:0 (Type 2)
Битовая глубина : 10 бит
Бит/(Пиксели*Кадры) : 0.312
Размер потока : 67,1 Гбайт (81%)
Default : Да
Forced : Нет
Цветовой диапазон : Limited
Основные цвета : BT.2020
Характеристики трансфера : PQ
Коэффициенты матрицы : BT.2020 non-constant
MasteringDisplay_ColorPrimaries : Display P3
MasteringDisplay_Luminance : min: 0.0001 cd/m2, max: 1000 cd/m2

Аудио #1
Идентификатор : 2
Формат : AC-3
Формат/Информация : Audio Coding 3
Идентификатор кодека : A_AC3
Продолжительность : 2 ч. 34 м.
Вид битрейта : Постоянный
Битрейт : 640 Кбит/сек
Каналы : 6 каналов
Расположение каналов : Front: L C R, Side: L R, LFE
Частота : 48,0 КГц
Частота кадров : 31,250 кадров/сек (1536 SPF)
Битовая глубина : 16 бит
Метод сжатия : С потерями
Размер потока : 708 Мбайт (1%)
Заголовок : Дубляж, UHD Blu-Ray
Язык : Russian
ServiceKind/String : Complete Main
Default : Да
Forced : Нет

Аудио #2
Идентификатор : 3
Формат : DTS
Формат/Информация : Digital Theater Systems
Профиль формата : MA / Core
Идентификатор кодека : A_DTS
Продолжительность : 2 ч. 34 м.
Вид битрейта : Переменный / Постоянный
Битрейт : 4565 Кбит/сек / 1509 Кбит/сек
Каналы : 8 каналов / 6 каналов
Расположение каналов : Front: L C R, Side: L R, Back: L R, LFE / Front: L C R, Side: L R, LFE
Частота : 48,0 КГц
Частота кадров : 93,750 кадра/сек (512 SPF)
Битовая глубина : 24 бит
Метод сжатия : Без потерь / Lossy
Размер потока : 4,93 Гбайт (6%)
Заголовок : Дубляж, Sergesha
Язык : Russian
Default : Нет
Forced : Нет

Аудио #3
Идентификатор : 4
Формат : DTS
Формат/Информация : Digital Theater Systems
Профиль формата : MA / Core
Идентификатор кодека : A_DTS
Продолжительность : 2 ч. 34 м.
Вид битрейта : Переменный / Постоянный
Битрейт : 4500 Кбит/сек / 1509 Кбит/сек
Каналы : 8 каналов / 6 каналов
Расположение каналов : Front: L C R, Side: L R, Back: L R, LFE / Front: L C R, Side: L R, LFE
Частота : 48,0 КГц
Частота кадров : 93,750 кадра/сек (512 SPF)
Битовая глубина : 24 бит
Метод сжатия : Без потерь / Lossy
Размер потока : 4,86 Гбайт (6%)
Заголовок : А. Гаврилов
Язык : Russian
Default : Нет
Forced : Нет

Аудио #4
Идентификатор : 5
Формат : TrueHD
Профиль формата : TrueHD+Atmos / TrueHD
Идентификатор кодека : A_TRUEHD
Продолжительность : 2 ч. 34 м.
Вид битрейта : Переменный
Битрейт : 4298 Кбит/сек
Максимальный битрейт : 6528 Кбит/сек
Каналы : Object Based / 8 каналов
Расположение каналов : Object Based / Front: L C R, Side: L R, Back: L R, LFE
Частота : / 48,0 КГц
Частота кадров : 1200,000 кадров/сек (40 SPF)
Метод сжатия : Без потерь
Размер потока : 4,64 Гбайт (6%)
Язык : English
Default : Нет
Forced : Нет

Аудио #5
Идентификатор : 6
Формат : AC-3
Формат/Информация : Audio Coding 3
Идентификатор кодека : A_AC3
Продолжительность : 2 ч. 34 м.
Вид битрейта : Постоянный
Битрейт : 640 Кбит/сек
Каналы : 6 каналов
Расположение каналов : Front: L C R, Side: L R, LFE
Частота : 48,0 КГц
Частота кадров : 31,250 кадров/сек (1536 SPF)
Битовая глубина : 16 бит
Метод сжатия : С потерями
Размер потока : 708 Мбайт (1%)
Язык : English
ServiceKind/String : Complete Main
Default : Нет
Forced : Нет

Текст #1
Идентификатор : 7
Формат : UTF-8
Идентификатор кодека : S_TEXT/UTF8
Идентификатор кодека/Информация : UTF-8 Plain Text
Продолжительность : 2 ч. 33 м.
Битрейт : 0 бит/сек
ElementCount : 28
Размер потока : 1,02 Кбайт (0%)
Заголовок : forced
Язык : Russian
Default : Да
Forced : Нет

Текст #2
Идентификатор : 8
Формат : UTF-8
Идентификатор кодека : S_TEXT/UTF8
Идентификатор кодека/Информация : UTF-8 Plain Text
Продолжительность : 2 ч. 33 м.
Битрейт : 96 бит/сек
ElementCount : 2321
Размер потока : 109 Кбайт (0%)
Заголовок : full
Язык : Russian
Default : Нет
Forced : Нет

Текст #3
Идентификатор : 9
Формат : UTF-8
Идентификатор кодека : S_TEXT/UTF8
Идентификатор кодека/Информация : UTF-8 Plain Text
Продолжительность : 2 ч. 24 м.
Битрейт : 64 бит/сек
ElementCount : 2276
Размер потока : 68,7 Кбайт (0%)
Заголовок : full
Язык : English
Default : Нет
Forced : Нет

Текст #4
Идентификатор : 10
Формат : UTF-8
Идентификатор кодека : S_TEXT/UTF8
Идентификатор кодека/Информация : UTF-8 Plain Text
Продолжительность : 2 ч. 25 м.
Битрейт : 73 бит/сек
ElementCount : 2620
Размер потока : 78,6 Кбайт (0%)
Заголовок : SDH
Язык : English
Default : Нет
Forced : Нет

Меню
00:00:00.000 : en:00:00:00.000
00:06:36.104 : en:00:06:36.104
00:14:03.468 : en:00:14:03.468
00:21:45.763 : en:00:21:45.763
00:27:53.255 : en:00:27:53.255
00:33:53.907 : en:00:33:53.907
00:40:08.906 : en:00:40:08.906
00:46:58.941 : en:00:46:58.941
00:53:25.786 : en:00:53:25.786
01:02:02.928 : en:01:02:02.928
01:08:47.081 : en:01:08:47.081
01:14:37.223 : en:01:14:37.223
01:20:10.180 : en:01:20:10.180
01:29:13.390 : en:01:29:13.390
01:37:59.499 : en:01:37:59.499
01:44:57.583 : en:01:44:57.583
01:51:15.502 : en:01:51:15.502
01:57:59.447 : en:01:57:59.447
02:06:09.729 : en:02:06:09.729
02:10:54.096 : en:02:10:54.096
02:16:01.153 : en:02:16:01.153
02:21:42.619 : en:02:21:42.619
02:25:17.292 : en:02:25:17.292




Скачать Трансформеры: Последний рыцарь через торрент http://i102.fastpic.ru/big/2018/0321/b6/24cbb26695a85ccd5220ad6febcb06b6.png Скачать, смотреть онлайн Трансформеры: Последний рыцарь бесплантно в хорошем качестве Описание: Не столь отдаленное будущее. Оптимус Прайм улетел, но обещал вернуться. Отряды специально обученных людей ловят трансформеров по ... 10 10 6
Торрент: Зарегистрирован [2018-08-15 17:51] · скачан: 81 раз
Статус: √ проверено
Размер: 82.97 GB
Как cкачать? Как скачать Трансформеры: Последний рыцарь через торрент | UTorrent

% Раздел Тема Автор DL S | L
Фильмы (HD 720p, 1080p) (48-60 fps) [ 6.71 GB ] Трансформеры: Последний рыцарь / Transformers: The Last Knight | Дубляж | 720p / 60 FPS slaventi-69 Скачать
1 | 1
Ultra HD (UHD: 2K, 4K, 8K) [ 82.97 GB ] Трансформеры: Последний рыцарь / Transformers: The Last Knight | Лицензия | 2160p bober100 Скачать
1 | 0
Ultra HD (UHD: 2K, 4K, 8K) [ 75.28 GB ] Трансформеры: Последний рыцарь / Transformers: The Last Knight | Лицензия | 2160p bober100 Скачать
1 | 0
Ultra HD (UHD: 2K, 4K, 8K) [ 85.7 GB ] Трансформеры: Последний рыцарь / Transformers: The Last Knight | Лицензия | 2160p bober100 Скачать
1 | 0
Ultra HD (UHD: 2K, 4K, 8K) [ 92.24 GB ] Трансформеры: Последний рыцарь / Transformers: The Last Knight | Дубляж | 2160p sheker187 Скачать
1 | 0
Фильмы [HD 720p, 1080p] (Хороший звук DUB, MVO) [ 17.59 GB ] Трансформеры: Последний рыцарь / Transformers: The Last Knight | Лицензия | 1080p sheker187 Скачать
2 | 0
Фильмы 2017 [DVDrip, WEB-DLRip, HDrip] (DUB, MVO) [ 2.18 GB ] Трансформеры: Последний рыцарь / Transformers: The Last Knight | Лицензия | BDRip Twi7ter Скачать
4 | 0

28-11-2019 20:33  


Отключить вcю реклaмy на сайте, в т.ч. и в плеере онлайн просмотра!

    Дорогой пользователь! Огромная просьба, поблагодарите релизера, оцените раздачу и оставьте свои комментарий, если Вы скачали Трансформеры: Последний рыцарь через торрент бесплатно!!
    Комментировать посты могут только пользователи прошедшие не сложную регистрацию
    Показать сообщения:    


    Трансформеры: Последний рыцарь через торрент
    Скачать бесплатно Трансформеры: Последний рыцарь
    Трансформеры: Последний рыцарь скачать торрент
    Трансформеры: Последний рыцарь смотреть онлайн
    Cкачать фильм Трансформеры: Последний рыцарь бесплатно
    Трансформеры: Последний рыцарь скачать торрент в хорошем качестве
    Трансформеры: Последний рыцарь смотреть онлайн бесплатно в хорошем качестве
    Вы не можете начинать темы
    Вы не можете отвечать на сообщения
    Вы не можете редактировать свои сообщения
    Вы не можете удалять свои сообщения
    Вы не можете голосовать в опросах
    Вы не можете прикреплять файлы к сообщениям
    Вы можете скачивать файлы
    Трансформеры: Последний рыцарь / Transformers: The Last Knight [2017, Фантастика, боевик, триллер, приключения, UHD BDRemux 2160p] AVO [А. Гаврилов] +Дубляж [Лицензия] смотреть онлайн, скачать торрент picoco.icu