Лицензия

MVO

1

1 сезон

Лицензия

Лицензия

13

MVO

1 сезон

Deluxe Edition

pack

Рекомендуем

30

Repack

ВАЖНО

ВАЖНО

Ghostwire

RePack

jed

RePack

fifa19

RePack

RDR2

RePack

NEED FOR SPEED™ PAYBACK

RePack

Кинопоиск HD

 Острые козырьки 6 сезон

6 сезон

FAR CRY 6

RePack

Лицензия

MVO

1

1 сезон

1 сезон

Лицензия

  

Живет такой парень (Василий Шукшин) [1964, СССР, мелодрама, комедия, DVDRip от AVP Studio]

Живет такой парень через торрент piratbit.org

Размер: 1.46 GB | Добавлен: 4 года 1 мес. назад | Торрент скачан:11 раз
Смотреть онлайн Живет такой парень | Скачать   

17-08-2018 07:59 Живет такой парень Скачать торрент  

Живет такой парень
Страна: СССР
Производство: Киностудия им. М. Горького

Жанр: мелодрама, комедия
Год выпуска: 1964
Продолжительность: 01:35:16

Перевод: Не требуется
Cубтитры: нет
Оригинальная аудиодорожка: русский

Режиссер: Василий Шукшин

В ролях:
Леонид Куравлёв, Лидия Чащина, Лариса Буркова, Ренита Григорьева, Нина Сазонова, Анастасия Зуева, Белла Ахмадулина, Борис Балакин, Родион Нахапетов, Виктор Филиппов, Иван Рыжов, Николай Федорцов, Евгений Тетерин, Борис Романов...
Об актёрах подробней

Описание:
По мотивам рассказов В. Шукшина.
Киноповесть о простом алтайском шофере Пашке Колокольникове, бесконечно влюбленном в жизнь, веселом, добром и отзывчивом, который, рискуя жизнью, предотвращает пожар бензовоза. Балагур с набором пошловатых, провинциальных присказок и выраженьиц, он любит розыгрыш, любит распустить хвост, приврать, пошутить и поприкалываться, но может и подвиг совершить.

Источник: DVD9 R5
Качество видео: DVDRip
Формат видео: AVI

Видео: 704х496 (1,419:1), 25 fps, XviD ~ 1736 kbps avg, 0.199 bit/pixel
Аудио: 48 kHz, Dolby Digital AC3 5.1, 448 kbps

Раздача от:
Общее
Полное имя : ZHivet.takoy.paren.1964.DVDRip_[New-team]_by_AVP_Studio.avi
Формат : AVI
Формат/Информация : Audio Video Interleave
Размер файла : 1,46 Гбайт
Продолжительность : 1 ч. 35 м.
Общий поток : 2194 Кбит/сек
Программа кодирования : VirtualDubMod 1.5.10.3 | www.virtualdub-fr.org || (build 2550/release)
Библиотека кодирования : VirtualDubMod build 2550/release

Видео
Идентификатор : 0
Формат : MPEG-4 Visual
Профиль формата : Advanced Simple@L5
Настройки формата : BVOP1 / Custom Matrix
Параметр BVOP формата : 1
Параметр QPel формата : Нет
Параметр GMC формата : Без точки перехода
Параметр матрицы формата : Выборочная
Идентификатор кодека : XVID
Идентификатор кодека/Подсказка : XviD
Продолжительность : 1 ч. 35 м.
Битрейт : 1736 Кбит/сек
Ширина : 704 пикселя
Высота : 496 пикселей
Соотношение сторон : 1,419
Частота кадров : 25,000 кадров/сек
Цветовое пространство : YUV
Субдискретизация насыщенности : 4:2:0
Битовая глубина : 8 бит
Тип развёртки : Прогрессивная
Метод сжатия : С потерями
Бит/(Пиксели*Кадры) : 0.199
Размер потока : 1,16 Гбайт (79%)
Библиотека кодирования : XviD 73

Аудио
Идентификатор : 1
Формат : AC-3
Формат/Информация : Audio Coding 3
Идентификатор кодека : 2000
Продолжительность : 1 ч. 35 м.
Вид битрейта : Постоянный
Битрейт : 448 Кбит/сек
Каналы : 6 каналов
Расположение каналов : Front: L C R, Side: L R, LFE
Частота : 48,0 КГц
Частота кадров : 31,250 кадров/сек (1536 SPF)
Битовая глубина : 16 бит
Метод сжатия : С потерями
Размер потока : 305 Мбайт (20%)
Выравнивание : Разделение по промежуткам
Продолжительность промежутка : 40 мс. (1,00 видеокадр)
Время предзагрузки промежутка : 500 мс



Скачать Живет такой парень через торрент http://picplus.ru/img/1808/17/5fb1b4bd.png Скачать, смотреть онлайн Живет такой парень бесплантно в хорошем качестве Описание:По мотивам рассказов В. Шукшина.Киноповесть о простом алтайском шофере Пашке Колокольникове, бесконечно влюбленном в жизнь, ... 10 10 2
Info! Золотая раздача, скачанное не засчитывается.
Торрент: Зарегистрирован [2018-08-17 07:59] · скачан: 11 раз
Статус: √ проверено
Размер: 1.46 GB
Как cкачать? Как скачать Живет такой парень через торрент | UTorrent

% Раздел Тема Автор DL S | L
Кино СССР [ 1.46 GB ] Живет такой парень | | DVDRip-AVC от AVP Studio AVP Studio Скачать
1 | 0
Кино СССР [ 746 MB ] Живет такой парень | | DVDRip от AVP Studio AVP Studio Скачать
1 | 0

28-11-2019 20:33  

Отключить вcю реклaмy на сайте

    Дорогой пользователь! Огромная просьба, поблагодарите релизера, оцените раздачу и оставьте свои комментарий, если Вы скачали Живет такой парень через торрент бесплатно!!
    Комментировать посты могут только пользователи прошедшие не сложную регистрацию
    Показать сообщения:    


    Живет такой парень через торрент
    Скачать бесплатно Живет такой парень
    Живет такой парень скачать торрент
    Живет такой парень смотреть онлайн
    Cкачать фильм Живет такой парень бесплатно
    Живет такой парень скачать торрент в хорошем качестве
    Живет такой парень смотреть онлайн бесплатно в хорошем качестве
    Вы не можете начинать темы
    Вы не можете отвечать на сообщения
    Вы не можете редактировать свои сообщения
    Вы не можете удалять свои сообщения
    Вы не можете голосовать в опросах
    Вы не можете прикреплять файлы к сообщениям
    Вы можете скачивать файлы