2 сезон

iTunes

MVO

1

2 сезон

iTunes

iTunes

1 сезон

RePack

30

Новинка

ВАЖНО

ИГРА 18+

pack

RePack

MK11
pack

Легкие деньги

RePack

jed

RePack

fifa19

RePack

RDR2

RePack

NEED FOR SPEED™ PAYBACK

4 сезон

9 сезон

Бесстыжие 9 сезон

Все сериалы

все сериалы на PB.wtf

RePack

FAR CRY 5

Anonymous, добрый день, мы не успеваем собрать деньги на оплату серверов за декабрь и январь, помогите нам пожалуйста в это трудное время. В качестве благодарности мы отключим Вам всю рекламу на сайте (укажите свой ник в строку Ваше имя)!

×
  
Magnet ссылка

Я тоже хочу (Алексей Балабанов) [2012 г., Драма, криминал, HDRip Лицензия "BD RUS"] piratbit.org

Я тоже хочу через торрент piratbit.org

Размер: 1.46 GB | Добавлен: 2 года 4 мес. назад | Торрент скачан:29 раз
Скачать  

17-08-2018 18:30 Я тоже хочу Скачать торрент  

Я тоже хочу
Год выпуска: 2012
Страна: Россия / Фонд кино , CTB Film Company
Жанр: Драма, криминал
Продолжительность: 01:19:52
Перевод: Оригинал (Лицензия BD RUS)

Режиссер: Алексей Балабанов

rating

В ролях: Александр Мосин, Олег Гаркуша, Юрий Матвеев, Алиса Шитикова, Алексей Балабанов, Пётр Балабанов, Виктор Горбунов, Авдотья Смирнова, Сергей Шолохов, Сергей Кульчицкий, Елена Лаврова, Сергей Панюшкин, Александр Трошин, Сергей Елдашев, Игорь Волудисин, Патрисио Шинкоколо, Любовь Глебова, Лариса Духанина, Ирина Окишева, Сергей Сушев, Николай Мухин, Сергей Требесов, Алексей Батищев, Андрей Баранов, Станислав Битлер, Сергей Кнышов, Евгений Келлерман, Андрей Сычев, Александр Ортин, Евгений Кострома, Вячеслав Иванов, Александр Андрианов, Виктор Галабурда, Максим Клименко, Назар Онищук, Сергей Евдокимов, Михаил Дорофеев, Николай Киселёв, Вадим Аверьянов, Светлана Аверьянова, Юлия Бочкова

Описание: По пустынной летней дороге мчится огромный черный джип. В нем — Бандит, его друг Матвей со стариком-отцом, Музыкант и красивая девушка. Они ищут Колокольню Счастья, которая, по слухам, находится где-то между Питером и Угличем, рядом с уже давно неработающей атомной станцией. Колокольня забирает людей. Но не всех. Но в темной большой машине каждый верит, что выберут его.

Качество: HDRip
Формат: AVI
Видео кодек: XviD
Аудио кодек: AC3
Видео: 720x400 (1.80:1), 25 fps, XviD build 50 ~2155 kbps avg, 0.30 bit/pixel
Аудио: 48 kHz, AC3 Dolby Digital, 3/2 (L,C,R,l,r) + LFE ch, ~448 kbps
скриншот   скриншот   скриншот   скриншот  

Общее
Полное имя : F:\ФИЛЬМЫ\Я тоже хочу.2012,HDRip.avi
Формат : AVI
Формат/Информация : Audio Video Interleave
Размер файла : 1,46 Гбайт
Продолжительность : 1 ч. 19 м.
Общий поток : 2613 Кбит/сек
Программа кодирования : VirtualDubMod 1.5.10.3 | www.virtualdub-fr.org || (build 2550/release)
Библиотека кодирования : VirtualDubMod build 2550/release

Видео
Идентификатор : 0
Формат : MPEG-4 Visual
Профиль формата : Advanced Simple@L5
Настройки формата : BVOP2
Параметр BVOP формата : 2
Параметр QPel формата : Нет
Параметр GMC формата : Без точки перехода
Параметр матрицы формата : Default (MPEG)
Идентификатор кодека : XVID
Идентификатор кодека/Подсказка : XviD
Продолжительность : 1 ч. 19 м.
Битрейт : 2155 Кбит/сек
Ширина : 720 пикселей
Высота : 400 пикселей
Соотношение сторон : 16:9
Частота кадров : 25,000 кадров/сек
Цветовое пространство : YUV
Субдискретизация насыщенности : 4:2:0
Битовая глубина : 8 бит
Тип развёртки : Прогрессивная
Метод сжатия : С потерями
Бит/(Пиксели*Кадры) : 0.299
Размер потока : 1,20 Гбайт (82%)
Библиотека кодирования : XviD 1.2.1 (UTC 2008-12-04)

Аудио
Идентификатор : 1
Формат : AC-3
Формат/Информация : Audio Coding 3
Идентификатор кодека : 2000
Продолжительность : 1 ч. 19 м.
Вид битрейта : Постоянный
Битрейт : 448 Кбит/сек
Каналы : 6 каналов
Расположение каналов : Front: L C R, Side: L R, LFE
Частота : 48,0 КГц
Частота кадров : 31,250 кадров/сек (1536 SPF)
Битовая глубина : 16 бит
Метод сжатия : С потерями
Размер потока : 256 Мбайт (17%)
Выравнивание : Разделение по промежуткам
Продолжительность промежутка : 40 мс. (1,00 видеокадр)
Время предзагрузки промежутка : 500 мс.
ServiceKind/String : Complete Main

piratbit.org



Скачать Я тоже хочу через торрент http://pic1.kartinco.top/images/11/n718g.jpg Скачать фильм Я тоже хочу через торрент бесплантно в хорошем качестве Описание: По пустынной летней дороге мчится огромный черный джип. В нем — Бандит, его друг Матвей со стариком-отцом, Музыкант и красивая ... 8.2 10 5
Торрент: Зарегистрирован [2018-08-17 18:30] · скачан: 29 раз
Статус: √ проверено
Размер: 1.46 GB
Как cкачать? Как скачать Я тоже хочу через торрент | UTorrent

% Раздел Тема Автор DL S | L
Документальные фильмы и телепередачи [ 660 MB ] Квартирный вопрос: я тоже хочу! [2019 документальный SATRip] bober100 Скачать
1 | 0
Наши новые фильмы 2012 [ 1.38 GB ] Я тоже хочу [2012 DVDRip Оригинал] oleg8 Скачать
1 | 0
Наши новые фильмы 2012 [ 745 MB ] Я тоже хочу [2012 DVDRip Оригинал] -=Cherry=- Скачать
1 | 0
Наши фильмы (HD, WEB-DL 720p, 1080p) [ 6.45 GB ] Я тоже хочу [2012 BDRip 1080p] Trava-HD Скачать
1 | 0
Наши фильмы (DVD фильмы) [ 4.51 GB ] Я тоже хочу [2012 DVD9] R5 voovaz Скачать
1 | 0

28-11-2019 20:33  

Отключить всю рекламу на сайте

20-08-2018 18:13 Я тоже хочу Скачать торрент  

балабановская чернуха, как и почти все его творения.piratbit.org



    Дорогой пользователь! Огромная просьба, поблагодарите релизера, оцените раздачу и оставьте свои комментарий, если Вы скачали Я тоже хочу через торрент бесплатно! Внесите свою лепту в развитие PiratBit!
    Комментировать посты могут только пользователи прошедшие не сложную регистрацию
    Показать сообщения:    

    Я тоже хочу через торрент
    Скачать бесплатно Я тоже хочу
    Я тоже хочу скачать торрент
    Я тоже хочу смотреть онлайн
    Cкачать фильм Я тоже хочу бесплатно
    Я тоже хочу скачать торрент в хорошем качестве
    Я тоже хочу смотреть онлайн бесплатно в хорошем качестве


    Вы не можете начинать темы
    Вы не можете отвечать на сообщения
    Вы не можете редактировать свои сообщения
    Вы не можете удалять свои сообщения
    Вы не можете голосовать в опросах
    Вы не можете прикреплять файлы к сообщениям
    Вы можете скачивать файлы