Лицензия

MVO

1

1 сезон

Лицензия

Лицензия

13

MVO

1 сезон

Deluxe Edition

pack

Рекомендуем

30

Repack

ВАЖНО

ВАЖНО

Ghostwire

RePack

jed

RePack

fifa19

RePack

RDR2

RePack

NEED FOR SPEED™ PAYBACK

RePack

Кинопоиск HD

 Острые козырьки 6 сезон

6 сезон

FAR CRY 6

RePack

Лицензия

MVO

1

1 сезон

1 сезон

Лицензия

  

Дрянь (Анатолий Иванов) [1990 г., Драма, Криминал, DVDRip-AVC]

Дрянь через торрент piratbit.org

Размер: 2.33 GB | Добавлен: 4 года 1 мес. назад | Торрент скачан:21 раз
Смотреть онлайн Дрянь | Скачать   

18-08-2018 19:22 Дрянь Скачать торрент  

Дрянь
Год выпуска: 1990
Страна: СССР
Жанр: Драма, Криминал
Продолжительность: 01:26:22
Субтитры: Отсутствуют

Режиссер: Анатолий Иванов

rating

В ролях: Олег Фомин, Мария Селянская, Вячеслав Баранов, Александр Мартынов, Эрнст Романов, Анатолий Лукьяненко, Игорь Слободской, Шариф Кабулов, Константин Шамин, Валерий Шептекита, Валентина Ильяшенко, Викторас Плют, Владимир Костюк, Закир Муминов, Петр Бенюк, Д. Гафурбеков, Елена Драныш, Людмила Лобза, Осип Найдук, Владимир Скляров, Фархад Хайдаров, Ульмас Юсупов

Описание: После двухлетнего отсутствия Валентин Мукасей возвращается домой и застает свою сестру Алису в невменяемом состоянии. Узнав, что девушка давно сидит на игле, брат пытается вытащить ее из наркотического ада, но, к сожалению, Алиса умирает от передозировки. С этого момента Валентин вместе с другом – тоже «афганцем» - объявляет беспощадную войну дельцам наркобизнеса.

Качество: DVDRip-AVC
Формат: MKV
Видео кодек: AVC
Аудио кодек: AC3
Видео: AVC, 694x572@740x572 , 25.0fps, 3558 Kbps
Аудио#1: AC3 , 2 ch , 48 kHz , 224 kbps
скриншот   скриншот   скриншот   скриншот  

Уникальный идентификатор : 241884781660163510718774015257738908368 (0xB5F9507D1D2D683E91967F68887A92D0)
Полное имя : D:Дрянь_1990-DVDRip-AVC_KORSAR.mkv
Формат : Matroska
Версия формата : Version 2
Размер файла : 2,33 Гбайт
Продолжительность : 1 ч. 26 м.
Общий поток : 3859 Кбит/сек
Название фильма : Дрянь_1990-DVDRip-AVC_KORSAR
Дата кодирования : UTC 2018-01-29 16:32:08
Программа кодирования : mkvmerge v5.8.0 ('No Sleep / Pillow') built on Sep 2 2012 15:37:04
Библиотека кодирования : libebml v1.2.3 + libmatroska v1.3.0

Видео
Идентификатор : 1
Формат : AVC
Формат/Информация : Advanced Video Codec
Профиль формата : High@L4.1
Параметр CABAC формата : Да
Параметр RefFrames формата : 14 кадров
Идентификатор кодека : V_MPEG4/ISO/AVC
Продолжительность : 1 ч. 26 м.
Битрейт : 3558 Кбит/сек
Ширина : 694 пикселя
Высота : 572 пикселя
Соотношение сторон : 1,294
Режим частоты кадров : Постоянный
Частота кадров : 25,000 кадров/сек
Цветовое пространство : YUV
Субдискретизация насыщенности : 4:2:0
Битовая глубина : 8 бит
Тип развёртки : Прогрессивная
Бит/(Пиксели*Кадры) : 0.359
Размер потока : 2,15 Гбайт (92%)
Библиотека кодирования : x264 core 148 r2744kMod b97ae06
Настройки программы : cabac=1 / ref=14 / deblock=1:-2:-1 / analyse=0x3:0x133 / me=umh / subme=10 / psy=1 / fade_compensate=0.00 / psy_rd=1.05:0.10 / mixed_ref=1 / me_range=40 / chroma_me=1 / trellis=2 / 8x8dct=1 / cqm=0 / deadzone=21,11 / fast_pskip=1 / chroma_qp_offset=-3 / threads=12 / lookahead_threads=2 / sliced_threads=0 / nr=0 / decimate=1 / interlaced=0 / bluray_compat=0 / constrained_intra=0 / bframes=9 / b_pyramid=2 / b_adapt=2 / b_bias=0 / direct=1 / weightb=1 / open_gop=0 / weightp=2 / keyint=250 / keyint_min=25 / scenecut=40 / intra_refresh=0 / rc_lookahead=40 / rc=crf / mbtree=0 / crf=18.2000 / qcomp=0.63 / qpmin=0 / qpmax=39 / qpstep=4 / vbv_maxrate=50000 / vbv_bufsize=62500 / crf_max=0.0 / nal_hrd=none / filler=0 / ip_ratio=1.40 / pb_ratio=1.30 / aq=2:1.00
Язык : English
Default : Да
Forced : Нет
Цветовой диапазон : Limited
Основные цвета : BT.601 PAL
Характеристики трансфера : BT.470 System B, BT.470 System G
Коэффициенты матрицы : BT.601

Аудио
Идентификатор : 2
Формат : AC-3
Формат/Информация : Audio Coding 3
Параметр Endianness формата : Big
Идентификатор кодека : A_AC3
Продолжительность : 1 ч. 26 м.
Вид битрейта : Постоянный
Битрейт : 224 Кбит/сек
Каналы : 2 канала
Расположение каналов : Front: L R
Частота : 48,0 КГц
Частота кадров : 31,250 кадров/сек (1536 SPF)
Битовая глубина : 16 бит
Метод сжатия : С потерями
Размер потока : 138 Мбайт (6%)
Язык : Russian
Default : Да
Forced : Нет




Скачать Дрянь через торрент https://pic1.kartinco.top/images/11/2qvcx.jpg Скачать, смотреть онлайн Дрянь бесплантно в хорошем качестве Описание: После двухлетнего отсутствия Валентин Мукасей возвращается домой и застает свою сестру Алису в невменяемом состоянии. Узнав, что ... 10 10 2
Info! Серебряная раздача, засчитывается только 50% скачанного.
Торрент: Зарегистрирован [2018-08-18 19:22] · скачан: 21 раз
Статус: √ проверено
Размер: 2.33 GB
Как cкачать? Как скачать Дрянь через торрент | UTorrent

28-11-2019 20:33  

Отключить вcю реклaмy на сайте

    Дорогой пользователь! Огромная просьба, поблагодарите релизера, оцените раздачу и оставьте свои комментарий, если Вы скачали Дрянь через торрент бесплатно!!
    Комментировать посты могут только пользователи прошедшие не сложную регистрацию
    Показать сообщения:    


    Дрянь через торрент
    Скачать бесплатно Дрянь
    Дрянь скачать торрент
    Дрянь смотреть онлайн
    Cкачать фильм Дрянь бесплатно
    Дрянь скачать торрент в хорошем качестве
    Дрянь смотреть онлайн бесплатно в хорошем качестве
    Вы не можете начинать темы
    Вы не можете отвечать на сообщения
    Вы не можете редактировать свои сообщения
    Вы не можете удалять свои сообщения
    Вы не можете голосовать в опросах
    Вы не можете прикреплять файлы к сообщениям
    Вы можете скачивать файлы