Лицензия

MVO

1

1 сезон

Лицензия

Лицензия

13

MVO

1 сезон

Deluxe Edition

pack

Рекомендуем

30

Repack

ВАЖНО

ВАЖНО

Ghostwire

RePack

jed

RePack

fifa19

RePack

RDR2

RePack

NEED FOR SPEED™ PAYBACK

RePack

Кинопоиск HD

 Острые козырьки 6 сезон

6 сезон

FAR CRY 6

RePack

Лицензия

MVO

1

1 сезон

1 сезон

Лицензия

  

Соучастники (Инна (Инесса) Туманян) [1983 г., Драма, Криминал, SATRip-AVC]

Соучастники через торрент piratbit.org

Размер: 1.54 GB | Добавлен: 4 года 1 мес. назад | Торрент скачан:8 раз
Смотреть онлайн Соучастники | Скачать   

18-08-2018 20:01 Соучастники Скачать торрент  

Соучастники
Год выпуска: 1983
Страна: СССР
Жанр: Драма, Криминал
Продолжительность: 01:34:02
Субтитры: Отсутствуют

Режиссер: Инна (Инесса) Туманян



В ролях: Леонид Филатов, Сергей Колтаков, Наталья Вилькина, Владимир Качан, Галина Морачева, Владимир Стеклов, Александр Феклистов, Владимир Ануфриев, Яна Друзь

Описание: С ранних лет кочующий по тюрьмам и колониям Анатолий, вернувшись из заключения, признается следователю, что десять лет назад он, в компании с другими подростками, совершил убийство.

Качество: SATRip-AVC
Формат: MKV
Видео кодек: AVC
Аудио кодек: AC3
Видео: AVC, 686x572@758x572 , 25.0fps, 2109 Kbps
Аудио#1: AC3 , 2 ch , 48 kHz , 192 kbps
скриншот   скриншот   скриншот   скриншот  

Уникальный идентификатор : 218534158449039289328635130390666758492 (0xA46825E0E4A4BA49A07E065E637F495C)
Полное имя : D:Соучастники_1983-SATRip-AVC_KORSAR.mkv
Формат : Matroska
Версия формата : Version 2
Размер файла : 1,54 Гбайт
Продолжительность : 1 ч. 34 м.
Общий поток : 2347 Кбит/сек
Дата кодирования : UTC 2017-12-30 12:22:50
Программа кодирования : mkvmerge v5.8.0 ('No Sleep / Pillow') built on Sep 2 2012 15:37:04
Библиотека кодирования : libebml v1.2.3 + libmatroska v1.3.0

Видео
Идентификатор : 1
Формат : AVC
Формат/Информация : Advanced Video Codec
Профиль формата : High@L4.1
Параметр CABAC формата : Да
Параметр RefFrames формата : 13 кадров
Идентификатор кодека : V_MPEG4/ISO/AVC
Продолжительность : 1 ч. 34 м.
Битрейт : 2109 Кбит/сек
Ширина : 686 пикселей
Высота : 572 пикселя
Соотношение сторон : 4:3
Режим частоты кадров : Постоянный
Частота кадров : 25,000 кадров/сек
Цветовое пространство : YUV
Субдискретизация насыщенности : 4:2:0
Битовая глубина : 8 бит
Тип развёртки : Прогрессивная
Бит/(Пиксели*Кадры) : 0.215
Размер потока : 1,38 Гбайт (90%)
Библиотека кодирования : x264 core 148 r2744kMod b97ae06
Настройки программы : cabac=1 / ref=13 / deblock=1:-2:-1 / analyse=0x3:0x133 / me=umh / subme=10 / psy=1 / fade_compensate=0.00 / psy_rd=1.05:0.10 / mixed_ref=1 / me_range=32 / chroma_me=1 / trellis=2 / 8x8dct=1 / cqm=0 / deadzone=21,11 / fast_pskip=1 / chroma_qp_offset=-3 / threads=12 / lookahead_threads=3 / sliced_threads=0 / nr=0 / decimate=1 / interlaced=0 / bluray_compat=0 / constrained_intra=0 / bframes=10 / b_pyramid=2 / b_adapt=2 / b_bias=0 / direct=1 / weightb=1 / open_gop=0 / weightp=2 / keyint=250 / keyint_min=25 / scenecut=40 / intra_refresh=0 / rc=crf / mbtree=0 / crf=18.0000 / qcomp=0.63 / qpmin=0 / qpmax=39 / qpstep=4 / ip_ratio=1.40 / pb_ratio=1.30 / aq=1:1.00
Язык : English
Default : Да
Forced : Нет
Цветовой диапазон : Limited
Основные цвета : BT.601 PAL
Характеристики трансфера : BT.470 System B, BT.470 System G
Коэффициенты матрицы : BT.601

Аудио
Идентификатор : 2
Формат : AC-3
Формат/Информация : Audio Coding 3
Параметр Endianness формата : Big
Идентификатор кодека : A_AC3
Продолжительность : 1 ч. 34 м.
Вид битрейта : Постоянный
Битрейт : 192 Кбит/сек
Каналы : 2 канала
Расположение каналов : Front: L R
Частота : 48,0 КГц
Частота кадров : 31,250 кадров/сек (1536 SPF)
Битовая глубина : 16 бит
Метод сжатия : С потерями
Размер потока : 129 Мбайт (8%)
Язык : Russian
Default : Да
Forced : Нет




Скачать Соучастники через торрент https://pic1.kartinco.top/images/11/xmket.jpg Скачать, смотреть онлайн Соучастники бесплантно в хорошем качестве Описание: С ранних лет кочующий по тюрьмам и колониям Анатолий, вернувшись из заключения, признается следователю, что десять лет назад он, ... 10 10 1
Торрент: Зарегистрирован [2018-08-18 20:01] · скачан: 8 раз
Статус: √ проверено
Размер: 1.54 GB
Как cкачать? Как скачать Соучастники через торрент | UTorrent

28-11-2019 20:33  

Отключить вcю реклaмy на сайте

    Дорогой пользователь! Огромная просьба, поблагодарите релизера, оцените раздачу и оставьте свои комментарий, если Вы скачали Соучастники через торрент бесплатно!!
    Комментировать посты могут только пользователи прошедшие не сложную регистрацию
    Показать сообщения:    


    Соучастники через торрент
    Скачать бесплатно Соучастники
    Соучастники скачать торрент
    Соучастники смотреть онлайн
    Cкачать фильм Соучастники бесплатно
    Соучастники скачать торрент в хорошем качестве
    Соучастники смотреть онлайн бесплатно в хорошем качестве
    Вы не можете начинать темы
    Вы не можете отвечать на сообщения
    Вы не можете редактировать свои сообщения
    Вы не можете удалять свои сообщения
    Вы не можете голосовать в опросах
    Вы не можете прикреплять файлы к сообщениям
    Вы можете скачивать файлы