1 сезон

3 сезон

iTunes

1

iTunes

DUB Netflix

iTunes

13

1 сезон

RePack

30

Deluxe

pack

Легкие деньги

ВАЖНО

ИГРА 18+

pack

RePack

MK11

RePack

jed

RePack

fifa19

RePack

RDR2

RePack

NEED FOR SPEED™ PAYBACK

4 сезон

9 сезон

Бесстыжие 9 сезон

Все сериалы

все сериалы на PB.wtf

RePack

FAR CRY 5

Anonymous, добрый день, мы не успеваем до 1 числа собрать деньги на оплату серверов, помогите нам пожалуйста в это трудное время. В качестве благодарности мы отключим Вам всю рекламу на сайте (укажите свой ник в строку Ваше имя)!

×
  
Magnet ссылка

Деффчонки / Сезон: 6 / Серии: 1-24 из 24 (Нигина Сайфуллаева, Ольга Френкель, Сергей Корягин) [2018, Ситком, комедия, HDTVRip-AVC] piratbit.org

Деффчонки через торрент piratbit.org

Размер: 8.76 GB | Добавлен: 2 года 9 мес. назад | Торрент скачан:28 раз
Скачать  

22-08-2018 16:44 Деффчонки Скачать торрент  

Деффчонки
Год выпуска: 2018
Страна: Россия
Жанр: Ситком, комедия
Продолжительность: ~ 00:25:00
Субтитры: отсутствуют

Режиссер: Нигина Сайфуллаева, Ольга Френкель, Сергей Корягин

rating

В ролях:

Александр Касаткин (II), Софья Урицкая, Тимур Боканча, Алексей Воробьёв, Александр Серов, Наталья Унгард, Родион Юрин, Таисия Вилкова, Полина Максимова, Анастасия Денисова, Галина Боб

Описание:

Деффчонки мечтавшие о яркой и красивой жизни в Москве, и так долго идущие к своей цели, оказались в итоге… в Саратове. У каждой на то свои причины: так, молодая мамочка Бобылич уехала к семье, потому что Звонарь решил принять участие в шоу «Завидный жених». И теперь Маша Бобылкина сидит дома с сыном, пока любимый мужчина обнимается с красотками на съемках шоу. От обиды Маша решила вспомнить молодость и встретилась со своей первой любовью. Активная карьеристка Пална устроилась в руководство крупного Саратовского завода. Ее рабочие решения постоянно вызывают приступы гнева у директора завода, берущего взятки и планирующего мошенничество вместе с губернатором. Параллельно у Палны образуется весьма бурная личная жизнь. Гламурная блондинка Леля снова пытается найти себе олигарха, но в итоге находит отца, с которым давно потеряла связь. По иронии судьбы, он как раз является олигархом и готов помочь дочери деньгами, но полностью наслаждаться новым статусом Леле мешает сводная сестра – подросток.

Качество: HDTVRip-AVC
Формат: MKV

Видео: MPEG-4 AVC, ~ 2000 Кбит/с, 1024x576, 25 кадр/с
Аудио: AC3, 2 ch, 192 Кбит/с
скриншот  скриншот  скриншот  скриншот  

Общее
Уникальный идентификатор : 178811727132238955629581812339152638555 (0x8685E2CEDFEE42089783762A3EB5D25B)
Полное имя : D:\Deffchonki.06.sezon.(2018).HDTVRip.(AVC).Files-x\01.Deffchonki.06.sezon.(2018).HDTVRip.AVC.by.Серый1779.Files-x.mkv
Формат : Matroska
Версия формата : Version 2
Размер файла : 408 Мбайт
Продолжительность : 26 м. 0 с.
Общий поток : 2193 Кбит/сек
Дата кодирования : UTC 2018-08-13 19:09:56
Программа кодирования : mkvmerge v7.8.0 ('River Man') 32bit built on Apr 3 2015 12:11:22
Библиотека кодирования : libebml v1.3.1 + libmatroska v1.4.2

Видео
Идентификатор : 1
Формат : AVC
Формат/Информация : Advanced Video Codec
Профиль формата : High@L4.1
Параметр CABAC формата : Да
Параметр RefFrames формата : 9 кадров
Идентификатор кодека : V_MPEG4/ISO/AVC
Продолжительность : 26 м. 0 с.
Битрейт : 2000 Кбит/сек
Ширина : 1024 пикселя
Высота : 576 пикселей
Соотношение сторон : 16:9
Режим частоты кадров : Постоянный
Частота кадров : 25,000 кадров/сек
Цветовое пространство : YUV
Субдискретизация насыщенности : 4:2:0
Битовая глубина : 8 бит
Тип развёртки : Прогрессивная
Бит/(Пиксели*Кадры) : 0.136
Размер потока : 364 Мбайт (89%)
Библиотека кодирования : x264 core 146 r2538 121396c
Настройки программы : cabac=1 / ref=9 / deblock=1:-2:-1 / analyse=0x3:0x133 / me=umh / subme=9 / psy=1 / psy_rd=1.00:0.15 / mixed_ref=1 / me_range=32 / chroma_me=1 / trellis=2 / 8x8dct=1 / cqm=0 / deadzone=21,11 / fast_pskip=0 / chroma_qp_offset=-3 / threads=18 / lookahead_threads=3 / sliced_threads=0 / nr=0 / decimate=1 / interlaced=0 / bluray_compat=0 / constrained_intra=0 / bframes=9 / b_pyramid=2 / b_adapt=2 / b_bias=0 / direct=1 / weightb=1 / open_gop=0 / weightp=2 / keyint=250 / keyint_min=25 / scenecut=40 / intra_refresh=0 / rc=2pass / mbtree=0 / bitrate=2000 / ratetol=1.0 / qcomp=0.60 / qpmin=0 / qpmax=69 / qpstep=4 / cplxblur=20.0 / qblur=0.5 / ip_ratio=1.40 / pb_ratio=1.30 / aq=2:1.00
Default : Да
Forced : Нет
Цветовой диапазон : Limited
Основные цвета : BT.709
Характеристики трансфера : BT.709
Коэффициенты матрицы : BT.709

Аудио
Идентификатор : 2
Формат : AC-3
Формат/Информация : Audio Coding 3
Расширение режима : CM (complete main)
Параметр Endianness формата : Big
Идентификатор кодека : A_AC3
Продолжительность : 26 м. 0 с.
Вид битрейта : Постоянный
Битрейт : 192 Кбит/сек
Каналы : 2 канала
Расположение каналов : Front: L R
Частота : 48,0 КГц
Частота кадров : 31,250 кадров/сек (1536 spf)
Метод сжатия : С потерями
Размер потока : 35,7 Мбайт (9%)
Default : Да
Forced : Нет

Внимание! Раздача ведётся путём добавления новых серий; при каждом добавлении создаётся новый торрент.
Чтобы начать докачку новой серии, пользователям необходимо сделать следующее:
1. Остановить скачивание;
2. Удалить старый торрент у себя из клиента (старые серии удалять не надо);
3. Скачать новый торрент и запустить его у себя в клиенте вместо старого, при этом указать клиенту путь в старую папку куда и должно происходить скачивание новых серий. Ваш клиент при этом должен произвести хеширование (проверку) старой папки и будет докачивать только те серии, которых у вас ещё нет. Старые серии при этом не удаляются, а продолжают раздаваться! Eсли вы уже удалили старые серии, то предотвратить повторную закачку старых серий можно, отжав галочку в соответствующих местах при запуске нового торрента.
piratbit.org



Скачать Деффчонки через торрент https://pic1.kartinco.top/images/11/whskq.jpg Скачать фильм Деффчонки через торрент бесплантно в хорошем качестве Описание: Деффчонки мечтавшие о яркой и красивой жизни в Москве, и так долго идущие к своей цели, оказались в итоге… в Саратове. У каждой ... 10 10 5
Торрент: Зарегистрирован [2018-08-30 21:39] · скачан: 28 раз
Статус: √ проверено
Размер: 8.76 GB
Как cкачать? Как скачать Деффчонки через торрент | UTorrent

% Раздел Тема Автор DL S | L
TNT serials [ 16.75 GB ] Деффчонки / Сезон: 6 / Серии: 1-24 из 24 [2018 ситком HDTVRip 720p] bober100 Скачать
1 | 0
TNT serials [ 7.4 GB ] Деффчонки / Сезон: 6 / Серии: 1-24 из 24 [2018 Ситком SATRip] bober100 Скачать
1 | 0

28-11-2019 20:33  

Отключить всю рекламу на сайте


    Дорогой пользователь! Огромная просьба, поблагодарите релизера, оцените раздачу и оставьте свои комментарий, если Вы скачали Деффчонки через торрент бесплатно! Внесите свою лепту в развитие PiratBit!
    Комментировать посты могут только пользователи прошедшие не сложную регистрацию
    Показать сообщения:    

    Деффчонки через торрент
    Скачать бесплатно Деффчонки
    Деффчонки скачать торрент
    Деффчонки смотреть онлайн
    Cкачать фильм Деффчонки бесплатно
    Деффчонки скачать торрент в хорошем качестве
    Деффчонки смотреть онлайн бесплатно в хорошем качестве


    Вы не можете начинать темы
    Вы не можете отвечать на сообщения
    Вы не можете редактировать свои сообщения
    Вы не можете удалять свои сообщения
    Вы не можете голосовать в опросах
    Вы не можете прикреплять файлы к сообщениям
    Вы можете скачивать файлы