MEGA NEWS Получи личный уникальный адрес сайта и защити себя от блокировок. Внимание количество ограничено!!!

iTunes

1+1

iTunes

мы

iTunes

1

iTunes

Чернобыль

iTunes

Ральф против интернета

Лицензия

ПШазам

Лицензия

Игра престолов

Лицензия

30
pack

ВАЖНО

!!Акция!!

Alien_RageХит недели

RePack

Resident Evil 21

ИГРА 18+

pack

RePack

Metro:Exodus

!!Акция!!

Alien_Rage

RePack

fifa19

RePack

Assassins Creed: Odyssey

RePack

NEED FOR SPEED™ PAYBACK

3 сезон

9 сезон

Бесстыжие 9 сезон

Все сериалы

все сериалы на PB.wtf

RePack

FAR CRY 5
Ребята, катастрофически не хватает 1900р. для оплаты серверов за АВГУСТ (всвязи с блокировками трафик упал в 3 раза), 1-2р., выручайте.
  

Большие гонки / The Great Race (Блейк Эдвардс) [1965, мелодрама, комедия, приключения, BDRip 1080p | 60 fps] DUB + 2xMVO piratbit.org

Большие гонки через торрент piratbit.org

Раздают: 1 [ 0 KB/s ]
Размер: 15.01 GB | Добавлен: 1 год 1 мес. назад | Торрент скачан:87 раз
Скачать  

31-08-2018 09:58 Большие гонки Скачать торрент  

Большие гонки / The Great Race
««THE GREAT LAUGH SHOW OF ALL TIME!»»

Год выпуска: 1965
Страна: США
Жанр: мелодрама, комедия, приключения, семейный, спорт

Продолжительность: 02:39:58
Перевод: Дубляж; Профессиональный [многоголосый]

Субтитры: русские, английские
Режиссер: Блейк Эдвардс
В ролях:

Джек Леммон (Professor Fate / Crown Prince Frederick Hoepnick), Тони Кертис (The Great Leslie), Натали Вуд (Maggie Dubois), Питер Фальк (Maximilian Meen), Кинен Уинн (Hezekiah Sturdy), Артур О’Коннелл (Henry Goodbody), Вивиан Вэнс (Hester Goodbody), Дороти Провайн (Lily Olay), Ларри Сторч (Texas Jack), Росс Мартин (Baron Rolfe Von Stuppe), Джордж Макреди (General Kuhster), Марвин Каплан (Frisbee)
Описание:
Начало ХХ века. Знаменитый испытатель, рыцарь без страха и упрека, всегда с иголочки одетый во все белое, Лесли по прозвищу Великий организует беспрецедентный автопробег Нью-Йорк-Париж. Завистливый и злобный изобретатель профессор Фэйт со своим верным слугой Максом принимает вызов Лесли. Он готов на все, лишь бы тот не добрался до финиша живым. Но какое приключение без женщины. И она появляется - красотка Мэгги обещает редактору ежедневной газеты сделать сенсационный репортаж с места событий и отправляется навстречу опасностям за рулем своей колымаги. Гонка стартовала, герой, красавица и злодей отправляются в путь...
Рейтинг:
rating
Качество: BDRip 1080p | 60 fps
Формат: MKV
Видео: AVC, 1920x792 (2.40:1), 12000 kbps, 59,940 fps, 0,132 bpp
Аудио №1: русский / AC3 / 2.0 / 48 kHz / 192 kbps / |Дублированный (Советский дубляж, со вставками многоголосого перевода в вырезанных сценах)|
Аудио №2: русский / AC3 / 5.1 / 48 kHz / 384 kbps / |Профессиональный многоголосый (DVD Magic)|
Аудио №3: русский / AC3 / 5.1 / 48 kHz / 384 kbps / |Профессиональный многоголосый (Film Prestige)|
Аудио №4: английский / AC3 / 5.1 / 48 kHz / 448 kbps /
Навигация по главам: есть
General
Unique ID : 177222734585701084340765122004758770030 (0x8553DB6D4BDADDC1AA32322FB9CB316E)
Complete name : D:\1965.Большие гонки.renta23.mkv
Format : Matroska
Format version : Version 4 / Version 2
File size : 15.0 GiB
Duration : 2 h 39 min
Overall bit rate : 13.4 Mb/s
Encoded date : UTC 2014-09-22 23:27:11
Writing application : mkvmerge v7.1.0 ('Good Love') 32bit built on Jul 27 2014 12:59:18
Writing library : libebml v1.3.0 + libmatroska v1.4.1

Video
ID : 1
Format : AVC
Format/Info : Advanced Video Codec
Format profile : High@L4.1
Format settings, CABAC : Yes
Format settings, ReFrames : 3 frames
Codec ID : V_MPEG4/ISO/AVC
Duration : 2 h 39 min
Bit rate : 12.0 Mb/s
Width : 1 920 pixels
Height : 792 pixels
Display aspect ratio : 2.40:1
Frame rate mode : Constant
Frame rate : 59.940 (59940/1000) FPS
Color space : YUV
Chroma subsampling : 4:2:0
Bit depth : 8 bits
Scan type : Progressive
Bits/(Pixel*Frame) : 0.132
Stream size : 13.1 GiB (88%)
Title : Большие гонки 1965 / renta23
Writing library : x264 core 125 r2208 d9d2288
Encoding settings : cabac=1 / ref=4 / deblock=1:-1:-1 / analyse=0x3:0x133 / me=umh / subme=11 / psy=1 / psy_rd=1.15:0.25 / mixed_ref=1 / me_range=32 / chroma_me=1 / trellis=2 / 8x8dct=1 / cqm=0 / deadzone=21,11 / fast_pskip=0 / chroma_qp_offset=-4 / threads=12 / lookahead_threads=2 / sliced_threads=0 / nr=0 / decimate=1 / interlaced=0 / bluray_compat=0 / constrained_intra=0 / bframes=16 / b_pyramid=1 / b_adapt=2 / b_bias=0 / direct=3 / weightb=1 / open_gop=0 / weightp=2 / keyint=250 / keyint_min=25 / scenecut=40 / intra_refresh=0 / rc_lookahead=50 / rc=2pass / mbtree=1 / bitrate=12000 / ratetol=1.0 / qcomp=0.60 / qpmin=0 / qpmax=69 / qpstep=4 / cplxblur=20.0 / qblur=0.5 / ip_ratio=1.40 / aq=2:1.00
Language : English
Default : Yes
Forced : No

Audio #1
ID : 2
Format : AC-3
Format/Info : Audio Coding 3
Mode extension : CM (complete main)
Format settings, Endianness : Big
Codec ID : A_AC3
Duration : 2 h 39 min
Bit rate mode : Constant
Bit rate : 192 kb/s
Channel(s) : 2 channels
Channel positions : Front: L R
Sampling rate : 48.0 kHz
Frame rate : 31.250 FPS (1536 spf)
Compression mode : Lossy
Stream size : 220 MiB (1%)
Title : Советский дубляж
Language : Russian
Default : Yes
Forced : No

Audio #2
ID : 3
Format : AC-3
Format/Info : Audio Coding 3
Mode extension : CM (complete main)
Format settings, Endianness : Big
Codec ID : A_AC3
Duration : 2 h 39 min
Bit rate mode : Constant
Bit rate : 384 kb/s
Channel(s) : 6 channels
Channel positions : Front: L C R, Side: L R, LFE
Sampling rate : 48.0 kHz
Frame rate : 31.250 FPS (1536 spf)
Compression mode : Lossy
Stream size : 439 MiB (3%)
Title : Многоголосый (DVD Magic)
Language : Russian
Default : No
Forced : No

Audio #3
ID : 4
Format : AC-3
Format/Info : Audio Coding 3
Mode extension : CM (complete main)
Format settings, Endianness : Big
Codec ID : A_AC3
Duration : 2 h 39 min
Bit rate mode : Constant
Bit rate : 384 kb/s
Channel(s) : 6 channels
Channel positions : Front: L C R, Side: L R, LFE
Sampling rate : 48.0 kHz
Frame rate : 31.250 FPS (1536 spf)
Compression mode : Lossy
Stream size : 439 MiB (3%)
Title : Многоголосый (Film Prestige)
Language : Russian
Default : No
Forced : No

Audio #4
ID : 5
Format : AC-3
Format/Info : Audio Coding 3
Mode extension : CM (complete main)
Format settings, Endianness : Big
Codec ID : A_AC3
Duration : 2 h 39 min
Bit rate mode : Constant
Bit rate : 448 kb/s
Channel(s) : 6 channels
Channel positions : Front: L C R, Side: L R, LFE
Sampling rate : 48.0 kHz
Frame rate : 31.250 FPS (1536 spf)
Compression mode : Lossy
Stream size : 513 MiB (3%)
Title : Оригинал
Language : English
Default : No
Forced : No

Text #1
ID : 6
Format : PGS
Muxing mode : zlib
Codec ID : S_HDMV/PGS
Codec ID/Info : Picture based subtitle format used on BDs/HD-DVDs
Language : Russian
Default : Yes
Forced : No

Text #2
ID : 7
Format : PGS
Muxing mode : zlib
Codec ID : S_HDMV/PGS
Codec ID/Info : Picture based subtitle format used on BDs/HD-DVDs
Language : English
Default : No
Forced : No

Menu
00:00:00.000 : en:Chapter 01
00:03:44.307 : en:Chapter 02
00:06:39.440 : en:Chapter 03
00:10:16.449 : en:Chapter 04
00:13:20.966 : en:Chapter 05
00:15:49.573 : en:Chapter 06
00:18:22.976 : en:Chapter 07
00:21:01.385 : en:Chapter 08
00:23:37.249 : en:Chapter 09
00:25:57.639 : en:Chapter 10
00:29:56.669 : en:Chapter 11
00:32:50.635 : en:Chapter 12
00:37:45.263 : en:Chapter 13
00:42:17.243 : en:Chapter 14
00:45:31.019 : en:Chapter 15
00:51:17.616 : en:Chapter 16
00:53:04.973 : en:Chapter 17
00:57:24.983 : en:Chapter 18
01:00:24.662 : en:Chapter 19
01:05:32.762 : en:Chapter 20
01:11:17.856 : en:Chapter 21
01:16:49.313 : en:Chapter 22
01:21:54.075 : en:Chapter 23
01:25:27.455 : en:Chapter 24
01:28:23.214 : en:Chapter 25
01:30:22.291 : en:Chapter 26
01:32:09.607 : en:Chapter 27
01:36:54.642 : en:Chapter 28
01:40:46.540 : en:Chapter 29
01:44:34.643 : en:Chapter 30
01:48:08.440 : en:Chapter 31
01:52:05.218 : en:Chapter 32
01:55:02.687 : en:Chapter 33
01:59:18.151 : en:Chapter 34
02:03:55.761 : en:Chapter 35
02:07:52.206 : en:Chapter 36
02:13:24.955 : en:Chapter 37
02:17:46.132 : en:Chapter 38
02:21:18.178 : en:Chapter 39
02:26:14.557 : en:Chapter 40
02:29:51.315 : en:Chapter 41
02:33:31.202 : en:Chapter 42
02:36:06.357 : en:Chapter 43
02:38:08.520 : en:Chapter 44
piratbit.org



Скачать Большие гонки через торрент http://pic1.kartinco.top/images/11/hingd.jpg Скачать фильм Большие гонки через торрент бесплантно в хорошем качестве Описание: Начало ХХ века. Знаменитый испытатель, рыцарь без страха и упрека, всегда с иголочки одетый во все белое, Лесли по прозвищу ... 10 10 6
Info! Золотая раздача, скачанное не засчитывается.
Торрент: Зарегистрирован [2018-08-31 09:58] · скачан: 87 раз
Статус: √ проверено
Размер: 15.01 GB
Как cкачать? Как скачать Большие гонки через торрент | qTorrent


>> Регистрируемся здесь <<






Отзывы и комментарии о схеме читаем и пишем здесь: ---> Отзывы и комментарии о схеме

Новые благодарочки в телеграм довольных пользователей:
скриншот   скриншот   скриншот   скриншот   скриншот

31-08-2018 14:54 Большие гонки Скачать торрент  

Шедевр на все времена!piratbit.org



    Дорогой пользователь! Огромная просьба, поблагодарите релизера, оцените раздачу и оставьте свои комментарий, если Вы скачали Большие гонки через торрент бесплатно! Внесите свою лепту в развитие PiratBit!
    Комментировать посты могут только пользователи прошедшие не сложную регистрацию
    Показать сообщения:    

    Большие гонки через торрент
    Скачать бесплатно Большие гонки
    Большие гонки скачать торрент
    Большие гонки смотреть онлайн
    Cкачать фильм Большие гонки бесплатно
    Большие гонки скачать торрент в хорошем качестве
    Большие гонки смотреть онлайн бесплатно в хорошем качестве


    Вы не можете начинать темы
    Вы не можете отвечать на сообщения
    Вы не можете редактировать свои сообщения
    Вы не можете удалять свои сообщения
    Вы не можете голосовать в опросах
    Вы не можете прикреплять файлы к сообщениям
    Вы можете скачивать файлы