1 сезон

3 сезон

iTunes

1

iTunes

DUB Netflix

iTunes

13

1 сезон

RePack

30

Deluxe

pack

Легкие деньги

ВАЖНО

ИГРА 18+

pack

RePack

MK11

RePack

jed

RePack

fifa19

RePack

RDR2

RePack

NEED FOR SPEED™ PAYBACK

4 сезон

9 сезон

Бесстыжие 9 сезон

Все сериалы

все сериалы на PB.wtf

RePack

FAR CRY 5

Anonymous, добрый вечер, мы не успеваем до 1 числа собрать деньги на оплату серверов, помогите нам пожалуйста в это трудное время. В качестве благодарности мы отключим Вам всю рекламу на сайте (укажите свой ник в строку Ваше имя)!

×
  
Magnet ссылка

Домашний арест / Сезон: 1 / Серии: 1-12 из 12 (Пётр Буслов) [2018, комедия, WEB-DLRip-AVC] piratbit.org

Домашний арест через торрент piratbit.org

Размер: 13.22 GB | Добавлен: 1 год назад | Торрент скачан:36 раз
Скачать  

31-08-2018 16:57 Домашний арест Скачать торрент  

Домашний арест Год выпуска: 2018
Страна: Россия
Жанр: комедия
Продолжительность: ~ 01:07:00
Перевод: Не требуется
Субтитры: отсутствуют

Режиссер: Пётр Буслов

rating

В ролях: Павел Деревянко, Александр Робак, Егор Клинаев, Юлия Сорокина, Анна Уколова, Тимофей Трибунцев, Марина Александрова, Сергей Бурунов, Илья Коврижных, Виктория Самилкина

Описание: Мэр небольшого города попался на взятке и в качестве меры пресечения ему назначен домашний арест по месту прописки. Коллизия в том, что, чтобы казаться скромнее, чиновник прописан не в своем особняке, а в коммунальной квартире, в которой когда-то родился и вырос. Так он попадает в коммунальный ад своей старой квартиры. Он больше не главный и сам в свою очередь оказывается во власти простых обитателей коммуналки.

Качество: WEB-DLRip-AVC
Формат: MKV

Видео: 1024x576, (16:9), 25 fps, AVC MPEG-4 (x264), High@L4.1 ~ 1850 kbps , 0.125 bit/pixel
Аудио: 48 kHz, AC3, 2/0 (L,R) ch, ~192.00 kbps avg
скриншот  скриншот  скриншот  скриншот  скриншот  

Общее
Уникальный идентификатор : 238214940893633404176300527717673968613 (0xB336875E917EF60784E1278BBB5DA3E5)
Полное имя : C:\Домашний арест\Домашний арест (01 сер.).mkv
Формат : Matroska
Версия формата : Version 2
Размер файла : 1 003 Мбайт
Продолжительность : 1 ч. 7 м.
Общий поток : 2 083 Кбит/сек
Дата кодирования : UTC 2020-05-17 12:39:40
Программа кодирования : mkvmerge v7.8.0 ('River Man') 32bit built on Apr 3 2015 12:11:22
Библиотека кодирования : libebml v1.3.1 + libmatroska v1.4.2

Видео
Идентификатор : 1
Формат : AVC
Формат/Информация : Advanced Video Codec
Профиль формата : High@L4.1
Настройки формата : CABAC / 9 Ref Frames
Параметр CABAC формата : Да
Параметр RefFrames формата : 9 кадров
Идентификатор кодека : V_MPEG4/ISO/AVC
Продолжительность : 1 ч. 7 м.
Битрейт : 1 850 Кбит/сек
Ширина : 1 024 пикселя
Высота : 576 пикселей
Соотношение сторон : 16:9
Режим частоты кадров : Постоянный
Частота кадров : 25,000 кадров/сек
Цветовое пространство : YUV
Субдискретизация насыщенности : 4:2:0
Битовая глубина : 8 бит
Тип развёртки : Прогрессивная
Бит/(Пиксели*Кадры) : 0.125
Размер потока : 891 Мбайт (89%)
Библиотека кодирования : x264 core 157 r2935 545de2f
Настройки программы : cabac=1 / ref=9 / deblock=1:-1:-1 / analyse=0x3:0x133 / me=umh / subme=10 / psy=1 / psy_rd=1.00:0.15 / mixed_ref=1 / me_range=24 / chroma_me=1 / trellis=2 / 8x8dct=1 / cqm=0 / deadzone=21,11 / fast_pskip=1 / chroma_qp_offset=-3 / threads=9 / lookahead_threads=1 / sliced_threads=0 / nr=0 / decimate=1 / interlaced=0 / bluray_compat=0 / constrained_intra=0 / bframes=9 / b_pyramid=2 / b_adapt=2 / b_bias=0 / direct=1 / weightb=1 / open_gop=0 / weightp=2 / keyint=250 / keyint_min=25 / scenecut=40 / intra_refresh=0 / rc_lookahead=60 / rc=crf / mbtree=1 / crf=18.0 / qcomp=0.60 / qpmin=0 / qpmax=69 / qpstep=4 / ip_ratio=1.40 / aq=1:1.00
Default : Да
Forced : Нет
Duration_Source : General_Duration

Аудио
Идентификатор : 2
Формат : AC-3
Формат/Информация : Audio Coding 3
Коммерческое название : Dolby Digital
Идентификатор кодека : A_AC3
Продолжительность : 1 ч. 7 м.
Вид битрейта : Постоянный
Битрейт : 192 Кбит/сек
Каналы : 2 канала
Channel layout : L R
Частота : 44,1 КГц
Частота кадров : 28,711 кадров/сек (1536 SPF)
Метод сжатия : С потерями
Размер потока : 92,5 Мбайт (9%)
Service kind : Complete Main
Default : Да
Forced : Нет
Duration_Source : General_Duration

Внимание! Раздача ведётся путём добавления новых серий; при каждом добавлении создfётся новый торрент. Чтобы начать докачку новой серии, пользователям необходимо сделать следующее: (1) остановить скачивание, (2) удалить старый торрент у себя из клиента (старые серии удалять не надо), (3) скачать новый торрент и запустить его у себя в клиенте вместо старого, при этом указать клиенту путь в старую папку куда и должно происходить скачивание новых серий.

Ваш клиент при этом должен произвести хеширование (проверку) старой папки (если не производит сам - помогите ему сделать это), и будет докачивать только те серии которых у вас ещё нет. Старые серии при этом не удаляются, а продолжают раздаваться!

Eсли вы уже удалили старые серии, то предотвратить повторную закачку старых серий можно, отжав галочку в соответсвующих местах при запуске нового торрента.
piratbit.org



Скачать Домашний арест через торрент https://i5.imageban.ru/out/2018/10/21/65db42b0bb2c1b474ea98571a05afce5.png Скачать фильм Домашний арест через торрент бесплантно в хорошем качестве Описание: Мэр небольшого города попался на взятке и в качестве меры пресечения ему назначен домашний арест по месту прописки. Коллизия в ... 9.9 10 62
Торрент: Зарегистрирован [2020-05-26 07:16] · скачан: 36 раз
Статус: √ проверено
Размер: 13.22 GB
Как cкачать? Как скачать Домашний арест через торрент | UTorrent

% Раздел Тема Автор DL S | L
TNT serials [ 16.54 GB ] Домашний арест / Сезон: 1 / Серии: 1-12 из 12 [2018 WEB-DL 720p] bober100 Скачать
3 | 2
TNT serials [ 9.94 GB ] Домашний арест / Сезон: 1 / Серии: 1-12 из 12 [2018 WEBRip-AVC] sokol_ok Скачать
4 | 0
TNT serials [ 11.2 GB ] Домашний арест / Сезон: 1 / Серии: 1-12 из 12 [2018 WEB-DLRip-AVC] - ExKinoRay Enigma2010 Скачать
1 | 0
TNT serials [ 11.22 GB ] Домашний арест / Сезон: 1 / Серии: 1-12 из 12 [2018 WEB-DLRip] bober100 Скачать
2 | 0
TNT serials [ 27.77 GB ] Домашний арест / Сезон: 1 / Серии: 1-12 из 12 [2018 WEB-DL 1080p] bober100 Скачать
1 | 0


Последний раз редактировалось: bober100 (2020-05-26 07:22), всего редактировалось 9 раз(а)

28-11-2019 20:33  

Отключить всю рекламу на сайте

22-11-2018 16:37 Домашний арест Скачать торрент  

Получил удовольствие от просмотра. Весьма драматично-юмористический сюжет. Непросто поржать, а и посочувствовать и позлиться.piratbit.org



08-01-2019 14:03 Домашний арест Скачать торрент  

Если не брать во внимание фсб и переезд в малосемейку очень похоже на Россию.Сериал мне очень понравился ,состав актеров и сюжет.Давно так не смеялся,а нужно плакать .piratbit.org



04-05-2019 18:39 Домашний арест Скачать торрент  

Хороший сериал.piratbit.org



    Дорогой пользователь! Огромная просьба, поблагодарите релизера, оцените раздачу и оставьте свои комментарий, если Вы скачали Домашний арест через торрент бесплатно! Внесите свою лепту в развитие PiratBit!
    Комментировать посты могут только пользователи прошедшие не сложную регистрацию
    Показать сообщения:    

    Домашний арест через торрент
    Скачать бесплатно Домашний арест
    Домашний арест скачать торрент
    Домашний арест смотреть онлайн
    Cкачать фильм Домашний арест бесплатно
    Домашний арест скачать торрент в хорошем качестве
    Домашний арест смотреть онлайн бесплатно в хорошем качестве


    Вы не можете начинать темы
    Вы не можете отвечать на сообщения
    Вы не можете редактировать свои сообщения
    Вы не можете удалять свои сообщения
    Вы не можете голосовать в опросах
    Вы не можете прикреплять файлы к сообщениям
    Вы можете скачивать файлы