Достать ножи: Стеклянная луковица

MVO

Добыча

Дубляж

Уэнсдэй

1 сезон

Тор

Дубляж

13 клиническая

1 сезон

Жестокая ночь

MVO

Одни из нас

1 сезон

Deluxe

pack

Рекомендуем

30

Пиратка

ВАЖНО

ВАЖНО

Ghostwire

Пиратка

jed

RePack

nioh2

RePack

RDR2

RePack

NEED FOR SPEED™ PAYBACK

RePack

скачать торрент

Кинопоиск HD

Острые козырьки 6 сезон

6 сезон

FAR CRY 6

RePack

скачать торрент

Лицензия

скачать торрент

MVO

1

1 сезон

скачать торрент

1 сезон

скачать торрент

Лицензия

  

Цена страха / The Sum of All Fears (Фил Олден Робинсон) [2002, Боевик, триллер, драма, UHD BDRemux 2160p] Дубляж+MVO+2xDVO+AVO

Цена страха через торрент piratbit.org

Размер: 52.06 GB | Добавлен: 4 года 5 мес. назад | Торрент скачан:7 раз
Смотреть онлайн | Скачать | Поддержите нас   

31-08-2018 18:34 Цена страха Скачать торрент  

Цена страха / The Sum of All Fears Год выпуска: 2002
Страна: США, Германия
Жанр: Боевик, триллер, драма
Продолжительность: 02:03:42
Перевод: Дублированный, Профессиональный многоголосый, Профессиональный двухголосый, Авторский
Субтитры: Русские, английские

Режиссер: Фил Олден Робинсон

rating

В ролях:

Бен Аффлек (Jack Ryan), Морган Фриман (DCI William Cabot), Бриджет Мойнэхэн (Dr. Cathy Muller), Джеймс Кромуэлл (President Fowler), Киран Хайндс (President Nemerov), Лив Шрайбер (John Clark), Майкл Бирн (Anatoli Grushkov), Колм Фиор (Olson), Алан Бейтс (Dressler), Рон Рифкин (Secretary of State Owens), Филип Бейкер Холл (Defense Secretary Becker), Ричард Марнер (President Zorkin)
Описание:

Когда президент России внезапно умирает, его пост занимает человек, о котором общественности известно достаточно мало. Именно этот факт увеличивает напряженную обстановку в стране. Глава ЦРУ Билл Кэбот принимает на работу молодого аналитика Джека Райана, специалиста по России, чтобы получать достоверную информацию из первых рук. Вскоре случается ужасное: столица Чечни обзаводится ядерной бомбой. Американцы быстро начинают обвинять во всем русских. Также они недоверчиво относятся к сведениям Райана, который с риском для жизни проводит свои расследования. А он прав. Террористы провоцируют начало войны между двумя нациями, находясь позади сцены. Когда они успешно взрывают бомбу рядом с Балтимором во время Золотого Кубка, мир уже находится на грани войны. Но... если Райан вовремя достанет необходимые доказательства, то этот поток бедствий прекратится. Экранизация по произведению: Том Клэнси

Качество: UHD BDRemux 2160p
Формат: MKV

Видео: HEVC HDR, 46.7 Mбит/с, 3840x2160, 23.976 кадр/с
Аудио#1: Русский (AC3, 6 ch, 640 Кбит/с) / Дублированный (Blu-ray EUR)
Аудио#2: Русский (AC3, 6 ch, 384 Кбит/с) / Профессиональный многоголосый
Аудио#3: Русский (DTS-HD MA, 6 ch, 3840 Кбит/с) / Профессиональный двухголосый (Карусель)
Аудио#4: Русский (AC3, 6 ch, 384 Кбит/с) / Профессиональный двухголосый (DDV)
Аудио#5: Русский (DTS-HD MA, 6 ch, 3840 Кбит/с) / Авторский (Владимир Королев)
Аудио#6: Английский (TrueHD, 6 ch, 3720 Кбит/с)
Аудио#7: Английский (AC3, 8 ch, 640 Кбит/с)
скриншот  скриншот  скриншот  скриншот  скриншот  

Unique ID : 103955961898386809045722105333635398482 (0x4E3530A34CEECE7155BB40E563F4BB52)
Complete name : D:uTorrentThe.Sum.of.All.Fears.2002.BDRemux.2160p.HDR.MediaClub.mkv
Format : Matroska
Format version : Version 4 / Version 2
File size : 52.1 GiB
Duration : 2 h 3 min
Overall bit rate mode : Variable
Overall bit rate : 60.2 Mb/s
Encoded date : UTC 2018-08-29 05:00:55
Writing application : mkvmerge v25.0.0 ('Prog Noir') 64-bit
Writing library : libebml v1.3.6 + libmatroska v1.4.9
Cover : Yes
Attachments : cover.jpg

Video
ID : 1
Format : HEVC
Format/Info : High Efficiency Video Coding
Commercial name : HDR10
Format profile : Main 10@L5.1@High
Codec ID : V_MPEGH/ISO/HEVC
Duration : 2 h 3 min
Bit rate : 46.7 Mb/s
Width : 3 840 pixels
Height : 2 160 pixels
Display aspect ratio : 16:9
Frame rate mode : Constant
Frame rate : 23.976 (24000/1001) FPS
Color space : YUV
Chroma subsampling : 4:2:0 (Type 2)
Bit depth : 10 bits
Bits/(Pixel*Frame) : 0.235
Stream size : 40.4 GiB (78%)
Title : BDRemux.2160p.HDR by Silverok
Default : Yes
Forced : No
Color range : Limited
Color primaries : BT.2020
Transfer characteristics : PQ
Matrix coefficients : BT.2020 non-constant
Mastering display color primaries : Display P3
Mastering display luminance : min: 0.0001 cd/m2, max: 1000 cd/m2

Audio #1
ID : 2
Format : AC-3
Format/Info : Audio Coding 3
Codec ID : A_AC3
Duration : 2 h 3 min
Bit rate mode : Constant
Bit rate : 640 kb/s
Channel(s) : 6 channels
Channel positions : Front: L C R, Side: L R, LFE
Sampling rate : 48.0 kHz
Frame rate : 31.250 FPS (1536 SPF)
Bit depth : 16 bits
Compression mode : Lossy
Stream size : 566 MiB (1%)
Title : Дублированный (Blu-ray)
Language : Russian
Service kind : Complete Main
Default : Yes
Forced : No

Audio #2
ID : 3
Format : AC-3
Format/Info : Audio Coding 3
Codec ID : A_AC3
Duration : 2 h 3 min
Bit rate mode : Constant
Bit rate : 384 kb/s
Channel(s) : 6 channels
Channel positions : Front: L C R, Side: L R, LFE
Sampling rate : 48.0 kHz
Frame rate : 31.250 FPS (1536 SPF)
Bit depth : 16 bits
Compression mode : Lossy
Stream size : 340 MiB (1%)
Title : Профессиональный многоголосый
Language : Russian
Service kind : Complete Main
Default : No
Forced : No

Audio #3
ID : 4
Format : DTS
Format/Info : Digital Theater Systems
Format profile : MA / Core
Codec ID : A_DTS
Duration : 2 h 3 min
Bit rate mode : Variable / Constant
Bit rate : 3 840 kb/s / 1 509 kb/s
Channel(s) : 6 channels
Channel positions : Front: L C R, Side: L R, LFE
Sampling rate : 48.0 kHz
Frame rate : 93.750 FPS (512 SPF)
Bit depth : 24 bits
Compression mode : Lossless / Lossy
Delay relative to video : 1 s 61 ms
Stream size : 3.31 GiB (6%)
Title : Профессиональный двухголосый (Карусель)
Language : Russian
Default : No
Forced : No

Audio #4
ID : 5
Format : AC-3
Format/Info : Audio Coding 3
Codec ID : A_AC3
Duration : 2 h 3 min
Bit rate mode : Constant
Bit rate : 384 kb/s
Channel(s) : 6 channels
Channel positions : Front: L C R, Side: L R, LFE
Sampling rate : 48.0 kHz
Frame rate : 31.250 FPS (1536 SPF)
Bit depth : 16 bits
Compression mode : Lossy
Stream size : 340 MiB (1%)
Title : Профессиональный двухголосый (DDV)
Language : Russian
Service kind : Complete Main
Default : No
Forced : No

Audio #5
ID : 6
Format : DTS
Format/Info : Digital Theater Systems
Format profile : MA / Core
Codec ID : A_DTS
Duration : 2 h 3 min
Bit rate mode : Variable / Constant
Bit rate : 3 840 kb/s / 1 509 kb/s
Channel(s) : 6 channels
Channel positions : Front: L C R, Side: L R, LFE
Sampling rate : 48.0 kHz
Frame rate : 93.750 FPS (512 SPF)
Bit depth : 24 bits
Compression mode : Lossless / Lossy
Delay relative to video : 1 s 61 ms
Stream size : 3.31 GiB (6%)
Title : Авторский (Владимир Королев)
Language : Russian
Default : No
Forced : No

Audio #6
ID : 7
Format : TrueHD
Codec ID : A_TRUEHD
Duration : 2 h 3 min
Bit rate mode : Variable
Bit rate : 3 720 kb/s
Maximum bit rate : 5 397 kb/s
Channel(s) : 6 channels
Channel positions : Front: L C R, Side: L R, LFE
Sampling rate : 48.0 kHz
Frame rate : 1 200.000 FPS (40 SPF)
Compression mode : Lossless
Stream size : 3.21 GiB (6%)
Language : English
Default : No
Forced : No

Audio #7
ID : 8
Format : AC-3
Format/Info : Audio Coding 3
Codec ID : A_AC3
Duration : 2 h 3 min
Bit rate mode : Constant
Bit rate : 640 kb/s
Channel(s) : 6 channels
Channel positions : Front: L C R, Side: L R, LFE
Sampling rate : 48.0 kHz
Frame rate : 31.250 FPS (1536 SPF)
Bit depth : 16 bits
Compression mode : Lossy
Stream size : 566 MiB (1%)
Language : English
Service kind : Complete Main
Default : No
Forced : No

Text #1
ID : 9
Format : UTF-8
Codec ID : S_TEXT/UTF8
Codec ID/Info : UTF-8 Plain Text
Duration : 1 h 55 min
Bit rate : 75 b/s
Count of elements : 1077
Stream size : 63.7 KiB (0%)
Title : Full
Language : Russian
Default : Yes
Forced : No

Text #2
ID : 10
Format : UTF-8
Codec ID : S_TEXT/UTF8
Codec ID/Info : UTF-8 Plain Text
Duration : 1 h 55 min
Bit rate : 57 b/s
Count of elements : 1352
Stream size : 49.2 KiB (0%)
Title : Full
Language : English
Default : No
Forced : No

Menu
00:00:00.000 : en:00:00:00.000
00:04:50.499 : en:00:04:50.499
00:13:01.072 : en:00:13:01.072
00:24:07.988 : en:00:24:07.988
00:30:08.056 : en:00:30:08.056
00:36:34.901 : en:00:36:34.901
00:48:09.845 : en:00:48:09.845
01:01:12.627 : en:01:01:12.627
01:06:24.480 : en:01:06:24.480
01:13:21.397 : en:01:13:21.397
01:20:17.396 : en:01:20:17.396
01:26:10.624 : en:01:26:10.624
01:33:58.842 : en:01:33:58.842
01:42:08.873 : en:01:42:08.873
01:47:29.485 : en:01:47:29.485
01:51:46.325 : en:01:51:46.325
01:57:22.661 : en:01:57:22.661




Скачать Цена страха через торрент https://a.radikal.ru/a25/1808/da/2e50a60ae001.png Скачать, смотреть онлайн Цена страха бесплантно в хорошем качестве Описание: Когда президент России внезапно умирает, его пост занимает человек, о котором общественности известно достаточно мало. Именно ... 10 10 3
Info! Золотая раздача, скачанное не засчитывается.
Торрент: Зарегистрирован [2018-08-31 18:34] · скачан: 7 раз
Статус: √ проверено
Размер: 52.06 GB
Как cкачать? Как скачать Цена страха через торрент | UTorrent

28-11-2019 20:33  


Отключить вcю реклaмy на сайте, в т.ч. и в плеере онлайн просмотра!

    Дорогой пользователь! Огромная просьба, поблагодарите релизера, оцените раздачу и оставьте свои комментарий, если Вы скачали Цена страха через торрент бесплатно!!
    Комментировать посты могут только пользователи прошедшие не сложную регистрацию
    Показать сообщения:    


    Цена страха через торрент
    Скачать бесплатно Цена страха
    Цена страха скачать торрент
    Цена страха смотреть онлайн
    Cкачать фильм Цена страха бесплатно
    Цена страха скачать торрент в хорошем качестве
    Цена страха смотреть онлайн бесплатно в хорошем качестве
    Вы не можете начинать темы
    Вы не можете отвечать на сообщения
    Вы не можете редактировать свои сообщения
    Вы не можете удалять свои сообщения
    Вы не можете голосовать в опросах
    Вы не можете прикреплять файлы к сообщениям
    Вы можете скачивать файлы
    Цена страха / The Sum of All Fears [2002, Боевик, триллер, драма, UHD BDRemux 2160p] Дубляж+MVO+2xDVO+AVO смотреть онлайн, скачать торрент picoco.icu