Доктор Стрэндж

Лицензия

Добыча

MVO

Дом дракона

1 сезон

Тор

Лицензия

Мэверик

Лицензия

Там, где раки поют

MVO

Властелин колец

1 сезон

Ultimate

pack

Рекомендуем

30

Repack

ВАЖНО

ВАЖНО

Ghostwire

RePack

jed

RePack

nioh2

RePack

RDR2

RePack

NEED FOR SPEED™ PAYBACK

RePack

скачать торрент

Кинопоиск HD

Острые козырьки 6 сезон

6 сезон

FAR CRY 6

RePack

скачать торрент

Лицензия

скачать торрент

MVO

1

1 сезон

скачать торрент

1 сезон

скачать торрент

Лицензия

  

Алёнка (Борис Барнет) [1961, СССР, комедия, SATRip от AVP Studio]

Алёнка через торрент piratbit.org

Размер: 1.09 GB | Добавлен: 4 года 1 мес. назад | Торрент скачан:10 раз
Смотреть онлайн Алёнка | Скачать   

02-09-2018 07:14 Алёнка Скачать торрент  

Алёнка
Страна: СССР
Производство: Мосфильм

Жанр: комедия
Год выпуска: 1961
Продолжительность: 01:23:59

Перевод: Не требуется
Cубтитры: нет
Оригинальная аудиодорожка: русский

Режиссер: Борис Барнет

В ролях:
Наташа Оводова, Ирина Зарубина, Василий Шукшин, Николай Боголюбов, Эраст Гарин, Николай Крючков, Евгений Шутов, Анда Зайце, В. Григорьева, Майя Менглет, Нина Никитина, Валентина Ушакова, Наталья Селезнёва...
Об актёрах подробней

Описание:
Действие происходит в период освоения целинных земель. Во время уборочной девятилетняя Аленка вынуждена уехать от родителей, так как в новом совхозе еще нет школы. Ее попутчики во время долгого пути рассказывают о своей жизни. Окончив институт, приехала на целину из Риги Эльза Калнынь. В совхозе не оказалось даже стоматологического кресла. Но Эльза не пасует перед трудностями. Сама Алёнка рассказала спутникам, как она на спор решила получить пять двоек и чуть не подвела этим учителя Витаминыча...

Исходник: DVB
Качество видео: SATRip
Формат видео: AVI

Видео: 688x512 (4:3), 25,000 кадров/сек, XviD ~ 1657 kbps avg, 0.188 bit/pixel
Аудио: 48 kHz, Dolby Digital AC3 2.0, 192 kbps

Раздача от:
Общее
Полное имя : Alyonka.1961.SATRip_[New-team]_by_AVP_Studio.avi
Формат : AVI
Формат/Информация : Audio Video Interleave
Размер файла : 1,09 Гбайт
Продолжительность : 1 ч. 23 м.
Общий поток : 1859 Кбит/сек
Программа кодирования : VirtualDubMod 1.5.10.3 | www.virtualdub-fr.org || (build 2550/release)
Библиотека кодирования : VirtualDubMod build 2550/release

Видео
Идентификатор : 0
Формат : MPEG-4 Visual
Профиль формата : Advanced Simple@L5
Настройки формата : BVOP1 / Custom Matrix
Параметр BVOP формата : 1
Параметр QPel формата : Нет
Параметр GMC формата : Без точки перехода
Параметр матрицы формата : Выборочная
Идентификатор кодека : XVID
Идентификатор кодека/Подсказка : XviD
Продолжительность : 1 ч. 23 м.
Битрейт : 1657 Кбит/сек
Ширина : 688 пикселей
Высота : 512 пикселей
Соотношение сторон : 4:3
Частота кадров : 25,000 кадров/сек
Цветовое пространство : YUV
Субдискретизация насыщенности : 4:2:0
Битовая глубина : 8 бит
Тип развёртки : Прогрессивная
Метод сжатия : С потерями
Бит/(Пиксели*Кадры) : 0.188
Размер потока : 995 Мбайт (89%)
Библиотека кодирования : XviD 73

Аудио
Идентификатор : 1
Формат : AC-3
Формат/Информация : Audio Coding 3
Идентификатор кодека : 2000
Продолжительность : 1 ч. 23 м.
Вид битрейта : Постоянный
Битрейт : 192 Кбит/сек
Каналы : 2 канала
Расположение каналов : Front: L R
Частота : 48,0 КГц
Частота кадров : 31,250 кадров/сек (1536 SPF)
Битовая глубина : 16 бит
Метод сжатия : С потерями
Размер потока : 115 Мбайт (10%)
Выравнивание : Разделение по промежуткам
Продолжительность промежутка : 40 мс. (1,00 видеокадр)
Время предзагрузки промежутка : 500 мс



Скачать Алёнка через торрент http://picplus.ru/img/1809/02/33e133c8.png Скачать, смотреть онлайн Алёнка бесплантно в хорошем качестве Описание:Действие происходит в период освоения целинных земель. Во время уборочной девятилетняя Аленка вынуждена уехать от родителей, так ... 10 10 1
Info! Золотая раздача, скачанное не засчитывается.
Торрент: Зарегистрирован [2018-09-02 07:14] · скачан: 10 раз
Статус: √ проверено
Размер: 1.09 GB
Как cкачать? Как скачать Алёнка через торрент | UTorrent

% Раздел Тема Автор DL S | L
Кино СССР [ 1.09 GB ] Алёнка | | SATRip-AVC от AVP Studio AVP Studio Скачать
1 | 0

28-11-2019 20:33  

Отключить вcю реклaмy на сайте

    Дорогой пользователь! Огромная просьба, поблагодарите релизера, оцените раздачу и оставьте свои комментарий, если Вы скачали Алёнка через торрент бесплатно!!
    Комментировать посты могут только пользователи прошедшие не сложную регистрацию
    Показать сообщения:    


    Алёнка через торрент
    Скачать бесплатно Алёнка
    Алёнка скачать торрент
    Алёнка смотреть онлайн
    Cкачать фильм Алёнка бесплатно
    Алёнка скачать торрент в хорошем качестве
    Алёнка смотреть онлайн бесплатно в хорошем качестве
    Вы не можете начинать темы
    Вы не можете отвечать на сообщения
    Вы не можете редактировать свои сообщения
    Вы не можете удалять свои сообщения
    Вы не можете голосовать в опросах
    Вы не можете прикреплять файлы к сообщениям
    Вы можете скачивать файлы