Достать ножи: Стеклянная луковица

MVO

Добыча

Дубляж

Уэнсдэй

1 сезон

Тор

Дубляж

13 клиническая

1 сезон

Жестокая ночь

MVO

Одни из нас

1 сезон

Deluxe

pack

Рекомендуем

30

Пиратка

ВАЖНО

ВАЖНО

Ghostwire

Пиратка

jed

RePack

nioh2

RePack

RDR2

RePack

NEED FOR SPEED™ PAYBACK

RePack

скачать торрент

Кинопоиск HD

Острые козырьки 6 сезон

6 сезон

FAR CRY 6

RePack

скачать торрент

Лицензия

скачать торрент

MVO

1

1 сезон

скачать торрент

1 сезон

скачать торрент

Лицензия

  

Плохие парни 2 / Bad Boys II (Майкл Бэй) [2003, боевик, триллер, комедия, криминал, UHD BD Remux 2160p] [HDR] MVO+DVO+3xAVO+VO+Дубляж (rus, ukr) [Лицензия]

Плохие парни 2 через торрент piratbit.org

Размер: 70.5 GB | Добавлен: 4 года 5 мес. назад | Торрент скачан:66 раз
Смотреть онлайн | Скачать | Поддержите нас   

06-09-2018 00:27 Плохие парни 2 Скачать торрент  

Плохие парни 2 / Bad Boys II
Год выпуска: 2003
Страна: США
Жанр: боевик, триллер, комедия, криминал
Продолжительность: 02:26:44
Перевод: Дублированный | Лицензия, Профессиональный многоголосый, Профессиональный двухголосый, Авторский, Любительский одноголосый
Субтитры: Русские, английские

Режиссер: Майкл Бэй

rating

В ролях:

Уилл Смит, Мартин Лоуренс, Гэбриэл Юнион, Хорди Молья, Петер Стормаре, Тереза Рэндл, Джо Пантольяно, Майкл Шеннон, Джон Седа, Юл Васкес

Описание:

Маркус Бэрнетт и Майк Лоури, детективы отдела по борьбе с незаконным оборотом наркотиков, получают новое задание. Им необходимо обнаружить схему поставок нового наркотика в Майами. Проводя данное расследование, напарники раскрывают искусный заговор, свитый местным наркобароном с целью контролировать всю торговлю наркотиками в городе. Случайно о его планах узнают и другие наркоторговцы Майами. В результате этого в городе вспыхивает настоящая война. Однако Маркусу и Майку удается благополучно справляться с напором наркомафии и засадить дилеров за решетку. Но ситуация выходить из-под контроля, когда Лоури не на шутку увлекается Сидни, сестрой Бэрнетта…

Качество: UHD BD Remux 2160p | HDR
Формат: MKV

Видео: HEVC, 3840x2160 (16:9), 23.976 fps, 51.0 Mb/s (0.256 bit/pixel)
Аудио#1: AC-3, 48.0 kHz, 6 ch, 640 kb/s, CBR (Russian) | Дублированный |
Аудио#2: AC-3, 48.0 kHz, 6 ch, 384 kb/s, CBR (Russian) |Многоголосый закадровый, CDV|
Аудио#3: AC-3, 48.0 kHz, 6 ch, 384 kb/s, CBR (Russian) |Двухголосый закадровый|
Аудио#4: DTS MA, 48.0 kHz, 6 ch, 2 384 kb/s (Russian) |Одноголосый закадровый, Гаврилов|
Аудио#5: DTS MA, 48.0 kHz, 6 ch, 2 396 kb/s (Russian) |Одноголосый закадровый, Живов|
Аудио#6: DTS MA, 48.0 kHz, 6 ch, 2 382 kb/s (Russian) |Одноголосый закадровый, Яроцкий|
Аудио#7: AC-3, 48.0 kHz, 2 ch, 192 kb/s, CBR (Russian) |Одноголосый закадровый|
Аудио#8: AC-3, 48.0 kHz, 2 ch, 192 kb/s, CBR (Ukrainian) |Дубляж, ТК "Інтер"|
Аудио#9: TrueHD TrueHD+Atmos / TrueHD, / 48.0 kHz, Object Based / 8 ch, 5 774 kb/s, VBR (English) | Original |
Аудио#10: DTS MA / Core, 48.0 kHz, 6 ch, 2 372 kb/s / 1 509 kb/s, VBR / CBR (English) | Original |
Аудио#11: AC-3, 48.0 kHz, 6 ch, 640 kb/s, CBR (English) | Original |
скриншот  скриншот  скриншот  скриншот  скриншот  

Общее
Уникальный идентификатор : 319673940070792803980249983428744777577 (0xF07EF61BD646402EEB01CC2F40C10F69)
Полное имя : Bad.Boys.II.2003.UHD.BDRemux.2160p.HEVC.HDR.IVA(7xRUS.UKR.ENG).ExKinoRay.mkv
Формат : Matroska
Версия формата : Version 4
Размер файла : 70,5 Гбайт
Продолжительность : 2 ч. 26 м.
Режим общего битрейта : Переменный
Общий поток : 68,8 Мбит/сек
Название фильма : Плохие парни 2 / Bad Boys II ( 2003 ) UHD BDRemux | HDR, 4K | IVA(7xRUS.ENG) | ExKinoRay
Дата кодирования : UTC 2018-09-05 22:44:42
Программа кодирования : mkvmerge v26.0.0 ('In The Game') 64-bit
Библиотека кодирования : libebml v1.3.6 + libmatroska v1.4.9
Обложка : Yes
Attachments : cover

Видео
Идентификатор : 1
Формат : HEVC
Формат/Информация : High Efficiency Video Coding
Коммерческое название : HDR10
Профиль формата : Main 10@L5.1@High
Идентификатор кодека : V_MPEGH/ISO/HEVC
Продолжительность : 2 ч. 26 м.
Битрейт : 51,0 Мбит/сек
Ширина : 3840 пикселей
Высота : 2160 пикселей
Соотношение сторон : 16:9
Режим частоты кадров : Постоянный
Частота кадров : 23,976 (24000/1001) кадра/сек
Цветовое пространство : YUV
Субдискретизация насыщенности : 4:2:0 (Type 2)
Битовая глубина : 10 бит
Бит/(Пиксели*Кадры) : 0.256
Размер потока : 52,2 Гбайт (74%)
Язык : English
Default : Да
Forced : Нет
Цветовой диапазон : Limited
Основные цвета : BT.2020
Характеристики трансфера : PQ
Коэффициенты матрицы : BT.2020 non-constant
MasteringDisplay_ColorPrimaries : Display P3
MasteringDisplay_Luminance : min: 0.0050 cd/m2, max: 4000 cd/m2
MaxCLL : 10000 cd/m2
MaxFALL : 1367 cd/m2

Аудио #1
Идентификатор : 2
Формат : AC-3
Формат/Информация : Audio Coding 3
Коммерческое название : Dolby Digital
Идентификатор кодека : A_AC3
Продолжительность : 2 ч. 26 м.
Вид битрейта : Постоянный
Битрейт : 640 Кбит/сек
Каналы : 6 каналов
Channel layout : L R C LFE Ls Rs
Частота : 48,0 КГц
Частота кадров : 31,250 кадров/сек (1536 SPF)
Битовая глубина : 16 бит
Метод сжатия : С потерями
Размер потока : 672 Мбайт (1%)
Заголовок : | Дублированный |
Язык : Russian
ServiceKind : Complete Main
Default : Да
Forced : Нет

Аудио #2
Идентификатор : 3
Формат : AC-3
Формат/Информация : Audio Coding 3
Коммерческое название : Dolby Digital
Идентификатор кодека : A_AC3
Продолжительность : 2 ч. 26 м.
Вид битрейта : Постоянный
Битрейт : 384 Кбит/сек
Каналы : 6 каналов
Channel layout : L R C LFE Ls Rs
Частота : 48,0 КГц
Частота кадров : 31,250 кадров/сек (1536 SPF)
Битовая глубина : 16 бит
Метод сжатия : С потерями
Размер потока : 403 Мбайт (1%)
Заголовок : | MVO, CDV |
Язык : Russian
ServiceKind : Complete Main
Default : Нет
Forced : Нет

Аудио #3
Идентификатор : 4
Формат : AC-3
Формат/Информация : Audio Coding 3
Коммерческое название : Dolby Digital
Идентификатор кодека : A_AC3
Продолжительность : 2 ч. 26 м.
Вид битрейта : Постоянный
Битрейт : 384 Кбит/сек
Каналы : 6 каналов
Channel layout : L R C LFE Ls Rs
Частота : 48,0 КГц
Частота кадров : 31,250 кадров/сек (1536 SPF)
Битовая глубина : 16 бит
Метод сжатия : С потерями
Размер потока : 403 Мбайт (1%)
Заголовок : | DVO |
Язык : Russian
ServiceKind : Complete Main
Default : Нет
Forced : Нет

Аудио #4
Идентификатор : 5
Формат : DTS XLL
Формат/Информация : Digital Theater Systems
Коммерческое название : DTS-HD Master Audio
Идентификатор кодека : A_DTS
Продолжительность : 2 ч. 26 м.
Вид битрейта : Переменный
Битрейт : 2384 Кбит/сек
Каналы : 6 каналов
Channel layout : C L R Ls Rs LFE
Частота : 48,0 КГц
Частота кадров : 93,750 кадра/сек (512 SPF)
Битовая глубина : 16 бит
Метод сжатия : Без потерь
Размер потока : 2,44 Гбайт (3%)
Заголовок : | AVO, Гаврилов |
Язык : Russian
Default : Нет
Forced : Нет

Аудио #5
Идентификатор : 6
Формат : DTS XLL
Формат/Информация : Digital Theater Systems
Коммерческое название : DTS-HD Master Audio
Идентификатор кодека : A_DTS
Продолжительность : 2 ч. 26 м.
Вид битрейта : Переменный
Битрейт : 2396 Кбит/сек
Каналы : 6 каналов
Channel layout : C L R Ls Rs LFE
Частота : 48,0 КГц
Частота кадров : 93,750 кадра/сек (512 SPF)
Битовая глубина : 16 бит
Метод сжатия : Без потерь
Размер потока : 2,46 Гбайт (3%)
Заголовок : | AVO, Живов |
Язык : Russian
Default : Нет
Forced : Нет

Аудио #6
Идентификатор : 7
Формат : DTS XLL
Формат/Информация : Digital Theater Systems
Коммерческое название : DTS-HD Master Audio
Идентификатор кодека : A_DTS
Продолжительность : 2 ч. 26 м.
Вид битрейта : Переменный
Битрейт : 2382 Кбит/сек
Каналы : 6 каналов
Channel layout : C L R Ls Rs LFE
Частота : 48,0 КГц
Частота кадров : 93,750 кадра/сек (512 SPF)
Битовая глубина : 16 бит
Метод сжатия : Без потерь
Размер потока : 2,44 Гбайт (3%)
Заголовок : | AVO, Яроцкий |
Язык : Russian
Default : Нет
Forced : Нет

Аудио #7
Идентификатор : 8
Формат : AC-3
Формат/Информация : Audio Coding 3
Коммерческое название : Dolby Digital
Идентификатор кодека : A_AC3
Продолжительность : 2 ч. 26 м.
Вид битрейта : Постоянный
Битрейт : 192 Кбит/сек
Каналы : 2 канала
Channel layout : L R
Частота : 48,0 КГц
Частота кадров : 31,250 кадров/сек (1536 SPF)
Битовая глубина : 16 бит
Метод сжатия : С потерями
Размер потока : 202 Мбайт (0%)
Заголовок : | VO |
Язык : Russian
ServiceKind : Complete Main
Default : Нет
Forced : Нет

Аудио #8
Идентификатор : 9
Формат : AC-3
Формат/Информация : Audio Coding 3
Коммерческое название : Dolby Digital
Идентификатор кодека : A_AC3
Продолжительность : 2 ч. 26 м.
Вид битрейта : Постоянный
Битрейт : 192 Кбит/сек
Каналы : 2 канала
Channel layout : L R
Частота : 48,0 КГц
Частота кадров : 31,250 кадров/сек (1536 SPF)
Битовая глубина : 16 бит
Метод сжатия : С потерями
Размер потока : 202 Мбайт (0%)
Заголовок : | Дублированный, ТК "Інтер" |
Язык : Ukrainian
ServiceKind : Complete Main
Default : Нет
Forced : Нет

Аудио #9
Идентификатор : 10
Формат : MLP FBA 16-ch
Формат/Информация : Meridian Lossless Packing FBA with 16-channel presentation
Коммерческое название : Dolby TrueHD with Dolby Atmos
Идентификатор кодека : A_TRUEHD
Продолжительность : 2 ч. 26 м.
Вид битрейта : Переменный
Битрейт : 5774 Кбит/сек
Максимальный битрейт : 8961 Кбит/сек
Каналы : 8 каналов
Channel layout : L R C LFE Ls Rs Lb Rb
Частота : 48,0 КГц
Частота кадров : 1200,000 кадров/сек (40 SPF)
Метод сжатия : Без потерь
Размер потока : 5,92 Гбайт (8%)
Заголовок : | Original |
Язык : English
Default : Нет
Forced : Нет
Number of dynamic objects : 11
Bed channel count : 1 канал
Bed channel configuration : LFE

Аудио #10
Идентификатор : 11
Формат : DTS XLL
Формат/Информация : Digital Theater Systems
Коммерческое название : DTS-HD Master Audio
Идентификатор кодека : A_DTS
Продолжительность : 2 ч. 26 м.
Вид битрейта : Переменный
Битрейт : 2372 Кбит/сек
Каналы : 6 каналов
Channel layout : C L R Ls Rs LFE
Частота : 48,0 КГц
Частота кадров : 93,750 кадра/сек (512 SPF)
Битовая глубина : 16 бит
Метод сжатия : Без потерь
Размер потока : 2,43 Гбайт (3%)
Заголовок : | Original, DTS MA |
Язык : English
Default : Нет
Forced : Нет

Аудио #11
Идентификатор : 12
Формат : AC-3
Формат/Информация : Audio Coding 3
Коммерческое название : Dolby Digital
Идентификатор кодека : A_AC3
Продолжительность : 2 ч. 26 м.
Вид битрейта : Постоянный
Битрейт : 640 Кбит/сек
Каналы : 6 каналов
Channel layout : L R C LFE Ls Rs
Частота : 48,0 КГц
Частота кадров : 31,250 кадров/сек (1536 SPF)
Битовая глубина : 16 бит
Метод сжатия : С потерями
Размер потока : 672 Мбайт (1%)
Заголовок : | Original, AC3 Core |
Язык : English
ServiceKind : Complete Main
Default : Нет
Forced : Нет

Текст #1
Идентификатор : 13
Формат : UTF-8
Идентификатор кодека : S_TEXT/UTF8
Идентификатор кодека/Информация : UTF-8 Plain Text
Продолжительность : 2 ч. 21 м.
Битрейт : 121 бит/сек
ElementCount : 1982
Размер потока : 125 Кбайт (0%)
Заголовок : Full
Язык : Russian
Default : Нет
Forced : Нет

Текст #2
Идентификатор : 14
Формат : UTF-8
Идентификатор кодека : S_TEXT/UTF8
Идентификатор кодека/Информация : UTF-8 Plain Text
Продолжительность : 2 ч. 20 м.
Битрейт : 70 бит/сек
ElementCount : 1912
Размер потока : 72,1 Кбайт (0%)
Заголовок : Full
Язык : English
Default : Нет
Forced : Нет

Меню
00:00:00.000 : :Глава 01
00:11:05.498 : :Глава 02
00:21:55.397 : :Глава 03
00:39:55.768 : :Глава 04
00:45:28.684 : :Глава 05
00:53:28.788 : :Глава 06
00:59:02.247 : :Глава 07
01:06:27.066 : :Глава 08
01:11:29.618 : :Глава 09
01:17:54.169 : :Глава 10
01:30:28.131 : :Глава 11
01:37:39.228 : :Глава 12
01:45:54.765 : :Глава 13
01:56:47.625 : :Глава 14
02:05:08.584 : :Глава 15
02:16:07.701 : :Глава 16




Скачать Плохие парни 2 через торрент https://b.radikal.ru/b24/1809/33/eb2e06d1c4e5.jpg Скачать, смотреть онлайн Плохие парни 2 бесплантно в хорошем качестве Описание: Маркус Бэрнетт и Майк Лоури, детективы отдела по борьбе с незаконным оборотом наркотиков, получают новое задание. Им необходимо ... 10 10 5
Торрент: Зарегистрирован [2018-09-06 00:27] · скачан: 66 раз
Статус: √ проверено
Размер: 70.5 GB
Как cкачать? Как скачать Плохие парни 2 через торрент | UTorrent

% Раздел Тема Автор DL S | L
Фильмы (WEB-DL 720p, 1080p) [ 22.03 GB ] Плохие парни 2 / Bad Boys II | MVO+DVO+ 2xAVO+VO | 1080p bober100 Скачать
1 | 0
Ultra HD (UHD: 2K, 4K, 8K) [ 39.4 GB ] Плохие парни 2 / Bad Boys II | DUB | 2160p sheker187 Скачать
1 | 0
Ultra HD (UHD: 2K, 4K, 8K) [ 84 GB ] Плохие парни 2 / Bad Boys II | Лицензия | 2160p bober100 Скачать
1 | 0
Фильмы [HD 720p, 1080p] (Хороший звук DUB, MVO) [ 10.79 GB ] Плохие парни 2 / Bad Boys II | DUB+MVO+2xAVO | 1080p, (10 bit bober100 Скачать
1 | 0
Фильмы 2001-2005 [ 2.05 GB ] Плохие парни 2 / Bad Boys II | | DVDRip Andruuha Скачать
1 | 0
Фильмы (HD 720p, 1080p) (48-60 fps) [ 16.94 GB ] Плохие парни 2 / Bad Boys II | Дубляж | 720p by mimok, Дубляж [BD CEE mimok Скачать
1 | 0
Фильмы [HD 720p, 1080p] (Хороший звук DUB, MVO) [ 12.22 GB ] Плохие парни 2 / Bad Boys II | Дубляж | 1080p, Дубляж Бумер Скачать
1 | 0

28-11-2019 20:33  


Отключить вcю реклaмy на сайте, в т.ч. и в плеере онлайн просмотра!

    Дорогой пользователь! Огромная просьба, поблагодарите релизера, оцените раздачу и оставьте свои комментарий, если Вы скачали Плохие парни 2 через торрент бесплатно!!
    Комментировать посты могут только пользователи прошедшие не сложную регистрацию
    Показать сообщения:    


    Плохие парни 2 через торрент
    Скачать бесплатно Плохие парни 2
    Плохие парни 2 скачать торрент
    Плохие парни 2 смотреть онлайн
    Cкачать фильм Плохие парни 2 бесплатно
    Плохие парни 2 скачать торрент в хорошем качестве
    Плохие парни 2 смотреть онлайн бесплатно в хорошем качестве
    Вы не можете начинать темы
    Вы не можете отвечать на сообщения
    Вы не можете редактировать свои сообщения
    Вы не можете удалять свои сообщения
    Вы не можете голосовать в опросах
    Вы не можете прикреплять файлы к сообщениям
    Вы можете скачивать файлы
    Плохие парни 2 / Bad Boys II [2003, боевик, триллер, комедия, криминал, UHD BD Remux 2160p] [HDR] MVO+DVO+3xAVO+VO+Дубляж [Лицензия] смотреть онлайн, скачать торрент picoco.icu