Ссылка на приватное зеркало нашего сайта всего за 1$. Внимание количество ограничено!!!

2 сезон

iTunes

iTunes

1

iTunes

iTunes

iTunes

WEBRip

iTunes

30
pack

Забери бонус

ВАЖНО

!!Акция!!

Alien_RageХит недели

RePack

RESIDENT EVIL 3: NEMESIS REMAKE

ИГРА 18+

pack

RePack

jed

!!Акция!!

Alien_Rage

RePack

fifa19

RePack

Assassins Creed: Odyssey

RePack

NEED FOR SPEED™ PAYBACK

4 сезон

9 сезон

Бесстыжие 9 сезон

Все сериалы

все сериалы на PB.wtf

RePack

FAR CRY 5
  

Элитный отряд / Tropa de Elite / Elite Squad (Жозе Падилья) [2007, Боевик, триллер, драма, криминал, BDRip-AVC от _denis_100 | NNNB] MVO + DVO + AVO + Original + Sub (Rus,Eng) piratbit.org

Элитный отряд через торрент piratbit.org

Размер: 3.57 GB | Добавлен: 2 года назад | Торрент скачан:36 раз
Скачать  

06-09-2018 14:45 Элитный отряд Скачать торрент  


Название: Элитный отряд
Оригинальное название: Tropa de Elite (Elite Squad)
Год выпуска: 2007
Жанр: Боевик, триллер, драма, криминал
Выпущено: Бразилия, Аргентина, США, Нидерланды, Costa Films, Estudios Mega, Feijao Filmes, Posto 9
Режиссер: Жозе Падилья
В ролях: Вагнер Моура, Андре Рамиро, Кайу Жункейра, Мильем Кортас, Фернанда Мачадо, Мария Рибейро, Паоло Вилела, Фернанда Де Фрейтас, Андре Фелипе, Фабио Лаго
Продолжительность: 01:54:44
Перевод: Профессиональный многоголосый, Профессиональный двухголосый, Авторский одноголосый
Субтитры: Русские, Английские

Описание:
В 1997 году, перед визитом Папы Римского в Рио де-Жанейро, капитан Насцименто из БОПО (Батальона особых полицейских операций) получает задание устранить опасность, исходящую от наркоторговцев, действующих в опасных трущобах поблизости от резиденции Папы. Капитан Насцименто ищет человека, способного заменить его, так как жена капитана беременна, и он собирается оставить БОПО и стать наставником новобранцев. Тем временем, два друга-идеалиста Нето и Матиас начинают службу в военной полиции, рассчитывая стать честными полицейскими и бороться с криминалом. Однако они сталкиваются в военной полиции с коррупцией, недостатком профессионализма и бюрократическим идиотизмом. После серьёзного инцидента в Моро да Бабилония они решают вступить в ряды БОПО. Пути капитана Насцименто, Нето и Матиаса тесно переплетаются на протяжении нескольких месяцев, вначале в период жёстких тренировок, затем в операции против наркоторговцев. Насцименто верит, что Нето может заменить его, но импульсивная натура Нето затрудняет принятие решения. Позднее кандидатура интеллигентного Матиаса кажется корректным выбором, но Матиасу нужно доказать, что у него есть сердце...

Качество: BDRip-AVC
Контейнер (Расширение): MKV
Видео: 1024x554, 2735 Кбит/сек, 23,976 кадр/сек, 0,201 Бит/[Пиксели*Кадры]
Аудио №1: русский / AC3 / 5.1 / 48 kHz / 384 kbps / |Профессиональный многоголосый, R5|
Аудио №2: русский / AC3 / 5.1 / 48 kHz / 448 kbps / |Профессиональный двухголосый, НТВ+|
Аудио №3: русский / AC3 / 5.1 / 48 kHz / 448 kbps / |Авторский одноголосый, Ю.Сербин|
Аудио №4: португальский / AC3 / 5.1 / 48 kHz / 448 kbps /
Навигация по главам (Чаптеры): естьАвтор рипа: Группа:
Format : Matroska
Format version : Version 2
File size : 3.57 GiB
Duration : 1 h 54 min
Overall bit rate : 4 453 kb/s
Movie name : Elite Squad.(2007).BDRip-AVC.[denis100]
Encoded date : UTC 2018-09-05 10:30:30
Writing application : mkvmerge v5.8.0 ('No Sleep / Pillow') built on Sep 2 2012 15:37:04
Writing library : libebml v1.2.3 + libmatroska v1.3.0

Video
ID : 1
Format : AVC
Format/Info : Advanced Video Codec
Format profile : High@L4.1
Format settings : CABAC / 11 Ref Frames
Format settings, CABAC : Yes
Format settings, ReFrames : 11 frames
Muxing mode : Header stripping
Codec ID : V_MPEG4/ISO/AVC
Duration : 1 h 54 min
Bit rate : 2 735 kb/s
Width : 1 024 pixels
Height : 554 pixels
Display aspect ratio : 1.85:1
Frame rate mode : Constant
Frame rate : 23.976 (24000/1001) FPS
Color space : YUV
Chroma subsampling : 4:2:0
Bit depth : 8 bits
Scan type : Progressive
Bits/(Pixel*Frame) : 0.201
Stream size : 2.11 GiB (59%)
Title : Elite Squad.(2007).BDRip-AVC.[denis100]
Writing library : x264 core 155 r2901 7d0ff22
Encoding settings : cabac=1 / ref=11 / deblock=1:-3:-3 / analyse=0x3:0x113 / me=umh / subme=11 / psy=1 / psy_rd=1.00:0.10 / mixed_ref=1 / me_range=32 / chroma_me=1 / trellis=2 / 8x8dct=1 / cqm=0 / deadzone=21,11 / fast_pskip=0 / chroma_qp_offset=-3 / threads=6 / lookahead_threads=1 / sliced_threads=0 / nr=0 / decimate=1 / interlaced=0 / bluray_compat=0 / constrained_intra=0 / bframes=10 / b_pyramid=2 / b_adapt=2 / b_bias=0 / direct=3 / weightb=1 / open_gop=0 / weightp=2 / keyint=240 / keyint_min=23 / scenecut=40 / intra_refresh=0 / rc=2pass / mbtree=0 / bitrate=2735 / ratetol=1.0 / qcomp=0.60 / qpmin=0 / qpmax=69 / qpstep=4 / cplxblur=20.0 / qblur=0.5 / ip_ratio=1.40 / pb_ratio=1.30 / aq=1:0.90
Language : English
Default : Yes
Forced : No

Audio #1
ID : 2
Format : AC-3
Format/Info : Audio Coding 3
Commercial name : Dolby Digital
Muxing mode : Header stripping
Codec ID : A_AC3
Duration : 1 h 54 min
Bit rate mode : Constant
Bit rate : 384 kb/s
Channel(s) : 6 channels
Channel layout : L R C LFE Ls Rs
Sampling rate : 48.0 kHz
Frame rate : 31.250 FPS (1536 SPF)
Bit depth : 16 bits
Compression mode : Lossy
Stream size : 315 MiB (9%)
Title : MVO, R5
Language : Russian
Service kind : Complete Main
Default : Yes
Forced : No

Audio #2
ID : 3
Format : AC-3
Format/Info : Audio Coding 3
Commercial name : Dolby Digital
Muxing mode : Header stripping
Codec ID : A_AC3
Duration : 1 h 54 min
Bit rate mode : Constant
Bit rate : 448 kb/s
Channel(s) : 6 channels
Channel layout : L R C LFE Ls Rs
Sampling rate : 48.0 kHz
Frame rate : 31.250 FPS (1536 SPF)
Bit depth : 16 bits
Compression mode : Lossy
Stream size : 368 MiB (10%)
Title : DVO, НТВ+
Language : Russian
Service kind : Complete Main
Default : No
Forced : No

Audio #3
ID : 4
Format : AC-3
Format/Info : Audio Coding 3
Commercial name : Dolby Digital
Muxing mode : Header stripping
Codec ID : A_AC3
Duration : 1 h 54 min
Bit rate mode : Constant
Bit rate : 448 kb/s
Channel(s) : 6 channels
Channel layout : L R C LFE Ls Rs
Sampling rate : 48.0 kHz
Frame rate : 31.250 FPS (1536 SPF)
Bit depth : 16 bits
Compression mode : Lossy
Stream size : 368 MiB (10%)
Title : AVO, Ю.Сербин
Language : Russian
Service kind : Complete Main
Default : No
Forced : No

Audio #4
ID : 5
Format : AC-3
Format/Info : Audio Coding 3
Commercial name : Dolby Digital
Muxing mode : Header stripping
Codec ID : A_AC3
Duration : 1 h 54 min
Bit rate mode : Constant
Bit rate : 448 kb/s
Channel(s) : 6 channels
Channel layout : L R C LFE Ls Rs
Sampling rate : 48.0 kHz
Frame rate : 31.250 FPS (1536 SPF)
Bit depth : 16 bits
Compression mode : Lossy
Stream size : 368 MiB (10%)
Language : Portuguese
Service kind : Complete Main
Default : No
Forced : No

Text #1
ID : 6
Format : UTF-8
Codec ID : S_TEXT/UTF8
Codec ID/Info : UTF-8 Plain Text
Language : Russian
Default : No
Forced : No

Text #2
ID : 7
Format : UTF-8
Codec ID : S_TEXT/UTF8
Codec ID/Info : UTF-8 Plain Text
Language : English
Default : No
Forced : No

Menu
00:00:00.000 : en:Chapter 01
00:11:46.642 : en:Chapter 02
00:24:03.128 : en:Chapter 03
00:37:39.610 : en:Chapter 04
00:52:08.228 : en:Chapter 05
01:07:41.911 : en:Chapter 06
01:21:57.432 : en:Chapter 07
01:36:44.401 : en:Chapter 08
скриншот   скриншот   скриншот  
piratbit.org



Скачать Элитный отряд через торрент https://i4.imageban.ru/out/2018/09/06/2572d70b6aec1d12e1bd7e2944079db2.png Скачать фильм Элитный отряд через торрент бесплантно в хорошем качестве Описание:В 1997 году, перед визитом Папы Римского в Рио де-Жанейро, капитан Насцименто из БОПО (Батальона особых полицейских операций) ... 5 10 1
Info! Золотая раздача, скачанное не засчитывается.
Торрент: Зарегистрирован [2018-09-06 14:45] · скачан: 36 раз
Статус: √ проверено
Размер: 3.57 GB
Как cкачать? Как скачать Элитный отряд через торрент | qTorrent

% Раздел Тема Автор DL S | L
Фильмы (HD 720p, 1080p) (48-60 fps) [ 5.11 GB ] Элитный отряд / Elite Squad / Tropa de Elite [2007 BDRip 720p / 60 FPS ] от R.G. HD-Films slaventi-69 Скачать
4 | 0
Фильмы (Blu-ray, BD-Remux, HDDVD) [ 30.59 GB ] Элитный отряд: Враг внутри / Elite Squad: The Enemy Within / Tropa de Elite 2 - O Inimigo Agora É Outr [2010 BDRemux 1080p от NNNB] AVO+Original+Sub _denis_100 Скачать
1 | 0
Фильмы (Blu-ray, BD-Remux, HDDVD) [ 22.44 GB ] Элитный отряд / Tropa de Elite / Elite Squad [2007 BDRemux 1080p от _denis_100 | NNNB] MVO + DVO + AVO + Original + Sub _denis_100 Скачать
1 | 0
T Релизы по Парсеру [Игры, Сериалы и Фильмы и другое...] [ 745 MB ] Элитный отряд: Враг внутри / Elite Squad: The Enemy Within / Tropa de Elite 2 - O Inimigo Agora É Outr [2010 Бразилия HDRip] AVO |Ю.Сербин| sanekbest1 Скачать
1 | 0
Фильмы [HD 720p, 1080p] (Хороший звук DUB, MVO) [ 7.75 GB ] Элитный отряд: Враг внутри / Elite Squad: The Enemy Within / Tropa de Elite 2 - O Inimigo Agora É Outr [2010 BDRip 720p] AVO+Orig+Sub Mr. Freeman Скачать
1 | 0
Фильмы [HD 720p, 1080p] (Хороший звук DUB, MVO) [ 7.75 GB ] Элитный отряд: Враг внутри / Elite Squad: The Enemy Within / Tropa de Elite 2 - O Inimigo Agora É Outr [2010 BDRip ] markfiter Скачать
1 | 0
Фильмы [HD 720p, 1080p] (Хороший звук DUB, MVO) [ 4.11 GB ] Элитный отряд / Tropa de Elite / Elite Squad [720p] [2007 BDRip] Joup Скачать
1 | 0

28-11-2019 20:33  

Отключить всю рекламу на сайте

    Дорогой пользователь! Огромная просьба, поблагодарите релизера, оцените раздачу и оставьте свои комментарий, если Вы скачали Элитный отряд через торрент бесплатно! Внесите свою лепту в развитие PiratBit!
    Комментировать посты могут только пользователи прошедшие не сложную регистрацию
    Показать сообщения:    

    Элитный отряд через торрент
    Скачать бесплатно Элитный отряд
    Элитный отряд скачать торрент
    Элитный отряд смотреть онлайн
    Cкачать фильм Элитный отряд бесплатно
    Элитный отряд скачать торрент в хорошем качестве
    Элитный отряд смотреть онлайн бесплатно в хорошем качестве


    Вы не можете начинать темы
    Вы не можете отвечать на сообщения
    Вы не можете редактировать свои сообщения
    Вы не можете удалять свои сообщения
    Вы не можете голосовать в опросах
    Вы не можете прикреплять файлы к сообщениям
    Вы можете скачивать файлы