Доктор Стрэндж

Лицензия

Добыча

MVO

Дом дракона

1 сезон

Тор

Лицензия

Мэверик

Лицензия

Там, где раки поют

MVO

Властелин колец

1 сезон

Ultimate

pack

Рекомендуем

30

Repack

ВАЖНО

ВАЖНО

Ghostwire

RePack

jed

RePack

nioh2

RePack

RDR2

RePack

NEED FOR SPEED™ PAYBACK

RePack

скачать торрент

Кинопоиск HD

Острые козырьки 6 сезон

6 сезон

FAR CRY 6

RePack

скачать торрент

Лицензия

скачать торрент

MVO

1

1 сезон

скачать торрент

1 сезон

скачать торрент

Лицензия

  

Весна на Заречной улице (Марлен Хуциев, Феликс Миронер) [1956, СССР, мелодрама, BDRip 720p от AVP Studio] [цветная версия]

Весна на Заречной улице через торрент piratbit.org

Размер: 2.91 GB | Добавлен: 4 года назад | Торрент скачан:66 раз
Смотреть онлайн | Скачать   

07-09-2018 12:02 Весна на Заречной улице Скачать торрент  

Весна на Заречной улице
Год выпуска: 1956
Страна: СССР
Студии: Одесская киностудия

Жанр: мелодрама
Продолжительность: 01:34:00
Субтитры: нет

Режиссер: Марлен Хуциев, Феликс Миронер

В ролях:

Нина Иванова, Николай Рыбников, Владимир Гуляев, Валентина Пугачёва, Геннадий Юхтин, Римма Шорохова, Николай Ключнев, Марина Гаврилко, Юрий Белов, Валентин Брылеев...
Полный список актёров

Описание:
История любви юной учительницы школы рабочей молодежи и ее ученика - одна из самых популярных отечественных мелодрам. Герой фильма, парень лихой и самоуверенный, лучший сталевар завода, не привык к отказам женщин. и вдруг его домогательства получают отпор!.. Поначалу он пытается играть в безразличие. Но проходит время - и он вдруг понимает, что к нему впервые пришло настоящее, глубокое чувство.

Исходник: BDRemux 1080p
Тип релиза:BDRip 720p
Контейнер: MKV

Видео: 1280x720 (16:9), 23,976 кадров/сек, H264 ~ 3980 kbps avg, 0.180 bit/pixel
Аудио: 48 kHz, Dolby Digital AC3 5.1, 448 kbps

Раздача от:
Общее
Полное имя : Vesna.na.Zarechnoy.ulice.1956.BDRip720p_[New-team]_by_AVP_Studio.mkv
Формат : Matroska
Версия формата : Version 2
Размер файла : 2,91 Гбайт
Продолжительность : 1 ч. 34 м.
Общий поток : 4430 Кбит/сек
Дата кодирования : UTC 2018-09-05 15:34:35
Программа кодирования : mkvmerge v6.1.0 ('Old Devil') built on Mar 4 2013 09:10:42
Библиотека кодирования : libebml v1.3.0 + libmatroska v1.4.0

Видео
Идентификатор : 1
Формат : AVC
Формат/Информация : Advanced Video Codec
Профиль формата : High@L4.1
Настройки формата : CABAC / 8 Ref Frames
Параметр CABAC формата : Да
Параметр RefFrames формата : 8 кадров
Идентификатор кодека : V_MPEG4/ISO/AVC
Продолжительность : 1 ч. 34 м.
Битрейт : 3980 Кбит/сек
Ширина : 1280 пикселей
Высота : 720 пикселей
Соотношение сторон : 16:9
Режим частоты кадров : Постоянный
Частота кадров : 23,976 (24000/1001) кадра/сек
Цветовое пространство : YUV
Субдискретизация насыщенности : 4:2:0
Битовая глубина : 8 бит
Тип развёртки : Прогрессивная
Бит/(Пиксели*Кадры) : 0.180
Размер потока : 2,56 Гбайт (88%)
Библиотека кодирования : x264 core 157 r2932 303c484
Настройки программы : cabac=1 / ref=8 / deblock=1:-3:-3 / analyse=0x3:0x133 / me=umh / subme=10 / psy=1 / psy_rd=1.00:0.00 / mixed_ref=1 / me_range=32 / chroma_me=1 / trellis=2 / 8x8dct=1 / cqm=0 / deadzone=21,11 / fast_pskip=1 / chroma_qp_offset=-2 / threads=6 / lookahead_threads=1 / sliced_threads=0 / nr=0 / decimate=0 / interlaced=0 / bluray_compat=0 / constrained_intra=0 / bframes=8 / b_pyramid=2 / b_adapt=2 / b_bias=0 / direct=3 / weightb=1 / open_gop=0 / weightp=2 / keyint=240 / keyint_min=24 / scenecut=40 / intra_refresh=0 / rc=2pass / mbtree=0 / bitrate=3980 / ratetol=1.0 / qcomp=0.60 / qpmin=0 / qpmax=69 / qpstep=4 / cplxblur=20.0 / qblur=0.5 / ip_ratio=1.40 / pb_ratio=1.30 / aq=1:1.00
Default : Да
Forced : Нет

Аудио
Идентификатор : 2
Формат : AC-3
Формат/Информация : Audio Coding 3
Коммерческое название : Dolby Digital
Идентификатор кодека : A_AC3
Продолжительность : 1 ч. 34 м.
Вид битрейта : Постоянный
Битрейт : 448 Кбит/сек
Каналы : 6 каналов
Channel layout : L R C LFE Ls Rs
Частота : 48,0 КГц
Частота кадров : 31,250 кадров/сек (1536 SPF)
Битовая глубина : 16 бит
Метод сжатия : С потерями
Размер потока : 301 Мбайт (10%)
Default : Да
Forced : Нет



Скачать Весна на Заречной улице через торрент http://s019.radikal.ru/i637/1608/bc/d13aae8ef841.png Скачать, смотреть онлайн Весна на Заречной улице бесплантно в хорошем качестве Описание:История любви юной учительницы школы рабочей молодежи и ее ученика - одна из самых популярных отечественных мелодрам. Герой ... 10 10 1
Info! Золотая раздача, скачанное не засчитывается.
Торрент: Зарегистрирован [2018-09-07 12:02] · скачан: 66 раз
Статус: √ проверено
Размер: 2.91 GB
Как cкачать? Как скачать Весна на Заречной улице через торрент | UTorrent

% Раздел Тема Автор DL S | L
Фильмы (HD 720p, 1080p) (48-60 fps) [ 5.05 GB ] Весна на Заречной улице | | 720p / 60 FPS, slaventi-69 Скачать
1 | 0
Кино СССР [ 7.95 GB ] Весна на Заречной улице | | 1080p от AVP Studio AVP Studio Скачать
1 | 0
Наши фильмы (Blu-ray, BD-Remux, HDDVD) [ 40.88 GB ] Весна на Заречной улице | | 1080p bober100 Скачать
1 | 0
Кино СССР [ 1.09 GB ] Весна на Заречной улице | | HDTVRip от AVP Studio AVP Studio Скачать
1 | 0
Кино СССР [ 1.46 GB ] Весна на Заречной улице | | HDTVRip-AVC от AVP Studio AVP Studio Скачать
1 | 0
Кино СССР [ 745 MB ] Весна на Заречной улице | | HDTVRip от AVP Studio AVP Studio Скачать
1 | 0
Кино СССР [ 1.46 GB ] Весна на Заречной улице | | SATRip - AVC tserkovnye Скачать
1 | 0

28-11-2019 20:33  


Отключить вcю реклaмy на сайте, в т.ч. и в плеере онлайн просмотра!

    Дорогой пользователь! Огромная просьба, поблагодарите релизера, оцените раздачу и оставьте свои комментарий, если Вы скачали Весна на Заречной улице через торрент бесплатно!!
    Комментировать посты могут только пользователи прошедшие не сложную регистрацию
    Показать сообщения:    


    Весна на Заречной улице через торрент
    Скачать бесплатно Весна на Заречной улице
    Весна на Заречной улице скачать торрент
    Весна на Заречной улице смотреть онлайн
    Cкачать фильм Весна на Заречной улице бесплатно
    Весна на Заречной улице скачать торрент в хорошем качестве
    Весна на Заречной улице смотреть онлайн бесплатно в хорошем качестве
    Вы не можете начинать темы
    Вы не можете отвечать на сообщения
    Вы не можете редактировать свои сообщения
    Вы не можете удалять свои сообщения
    Вы не можете голосовать в опросах
    Вы не можете прикреплять файлы к сообщениям
    Вы можете скачивать файлы