2 сезон

iTunes

WEBRip

1

2 сезон

iTunes

1 сезон

1 сезон

RePack

30

Ultimate

ВАЖНО

ИГРА 18+

pack

RePack

MK11
pack

Легкие деньги

RePack

jed

RePack

fifa19

RePack

RDR2

RePack

NEED FOR SPEED™ PAYBACK

4 сезон

9 сезон

Бесстыжие 9 сезон

Все сериалы

все сериалы на PB.wtf

RePack

FAR CRY 5

Anonymous, добрый вечер, мы не успеваем собрать деньги на оплату серверов за февраль, помогите нам пожалуйста в это трудное время. В качестве благодарности мы отключим Вам всю рекламу на сайте (укажите свой ник в строку Ваше имя)!

×
  
Magnet ссылка

Голодные Z / Les affamés (Робин Обер) [2017, ужасы, драма, BDRip-AVC] [Ukr MVO] [iTunes] piratbit.org

Голодные Z через торрент piratbit.org

Размер: 1.86 GB | Добавлен: 2 года 5 мес. назад | Торрент скачан:8 раз
Скачать  

07-09-2018 12:11 Голодные Z Скачать торрент  

Голодные Z / Les affamés
Информация о фильме

Год выхода: 2017
Произведено: Канада
Жанр: ужасы, драма
Продолжительность: 01:43:00
Перевод: Украинский (профессиональный, многоголосый)

Режиссер: Робин Обер

В ролях: Марк-Андре Гронден, Монья Шокри, Шарлотта Сен-Мартен, Мишлен Ланкто, Мари-Джинетт Гуай, Бриджитт Пупар, Эдуар Трамбле-Гренье, Люк Пру, Дидье Люсьен, Робер Бруйетт

О фильме: В небольшой деревушке неподалеку от Квебека все изменилось. Местные жители уже не те, что раньше: их тела разлагаются, а сами они стали интересоваться исключительно свежей плотью.



Файл
Качество: BDRip-AVC
Формат: MKV
Видео данные: AVC, 960 х 576, 23.976 fps, ~1758 kbps avg
Аудио 1: 48 kHz, AC3 Dolby Digital, 6 ch, ~384 kbps - Ukr MVO / студия ААА-sound
Аудио 2: 48 kHz, AC3 Dolby Digital, 6 ch, ~448 kbps - Fre
General
Unique ID : 201632117840725845272951035431657850460 (0x97B0EEF005FFDD51929FFBD2D626C65C)
Complete name : E:\INTERNET\Les affamés (2017) BDRip-AVC [UKR_FRE] [Hurtom].mkv
Format : Matroska
Format version : Version 4 / Version 2
File size : 1.86 GiB
Duration : 1 h 43 min
Overall bit rate : 2 592 kb/s
Encoded date : UTC 2018-09-06 16:28:38
Writing application : mkvmerge v14.0.0 ('Flow') 64bit
Writing library : libebml v1.3.4 + libmatroska v1.4.5
Cover : Yes
Attachments : cover

Video
ID : 1
Format : AVC
Format/Info : Advanced Video Codec
Format profile : High@L4.1
Format settings : CABAC / 10 Ref Frames
Format settings, CABAC : Yes
Format settings, RefFrames : 10 frames
Codec ID : V_MPEG4/ISO/AVC
Duration : 1 h 43 min
Bit rate : 1 758 kb/s
Width : 960 pixels
Height : 576 pixels
Display aspect ratio : 5:3
Frame rate mode : Constant
Frame rate : 24.000 FPS
Color space : YUV
Chroma subsampling : 4:2:0
Bit depth : 8 bits
Scan type : Progressive
Bits/(Pixel*Frame) : 0.132
Stream size : 1.23 GiB (66%)
Writing library : x264 core 146 r2538 121396c
Encoding settings : cabac=1 / ref=10 / deblock=1:-3:-3 / analyse=0x3:0x113 / me=umh / subme=11 / psy=1 / psy_rd=0.97:0.07 / mixed_ref=1 / me_range=48 / chroma_me=1 / trellis=2 / 8x8dct=1 / cqm=0 / deadzone=21,11 / fast_pskip=1 / chroma_qp_offset=-3 / threads=6 / lookahead_threads=1 / sliced_threads=0 / nr=0 / decimate=1 / interlaced=0 / bluray_compat=0 / constrained_intra=0 / bframes=10 / b_pyramid=2 / b_adapt=2 / b_bias=0 / direct=3 / weightb=1 / open_gop=0 / weightp=2 / keyint=240 / keyint_min=24 / scenecut=40 / intra_refresh=0 / rc_lookahead=40 / rc=2pass / mbtree=1 / bitrate=1758 / ratetol=1.0 / qcomp=0.60 / qpmin=0 / qpmax=69 / qpstep=4 / cplxblur=20.0 / qblur=0.5 / vbv_maxrate=50000 / vbv_bufsize=62500 / nal_hrd=none / filler=0 / ip_ratio=1.40 / aq=1:1.00
Language : English
Default : Yes
Forced : No

Audio #1
ID : 2
Format : AC-3
Format/Info : Audio Coding 3
Format settings, Endianness : Big
Codec ID : A_AC3
Duration : 1 h 43 min
Bit rate mode : Constant
Bit rate : 384 kb/s
Channel(s) : 6 channels
Channel positions : Front: L C R, Side: L R, LFE
Sampling rate : 48.0 kHz
Frame rate : 31.250 FPS (1536 SPF)
Bit depth : 16 bits
Compression mode : Lossy
Stream size : 283 MiB (15%)
Title : AC3 5.1 @ 384 kbps
Language : Ukrainian
Service kind : Complete Main
Default : Yes
Forced : Yes

Audio #2
ID : 3
Format : AC-3
Format/Info : Audio Coding 3
Format settings, Endianness : Big
Codec ID : A_AC3
Duration : 1 h 43 min
Bit rate mode : Constant
Bit rate : 448 kb/s
Channel(s) : 6 channels
Channel positions : Front: L C R, Side: L R, LFE
Sampling rate : 48.0 kHz
Frame rate : 31.250 FPS (1536 SPF)
Bit depth : 16 bits
Compression mode : Lossy
Stream size : 330 MiB (17%)
Title : AC3 5.1 @ 448 kbps
Language : French
Service kind : Complete Main
Default : No
Forced : No

Menu
00:00:00.000 : en:Chapter 1
00:05:44.166 : en:Chapter 2
00:12:07.750 : en:Chapter 3
00:18:28.250 : en:Chapter 4
00:25:54.875 : en:Chapter 5
00:32:11.833 : en:Chapter 6
00:38:50.291 : en:Chapter 7
00:45:21.000 : en:Chapter 8
00:51:00.500 : en:Chapter 9
00:57:40.250 : en:Chapter 10
01:04:43.791 : en:Chapter 11
01:10:38.000 : en:Chapter 12
01:17:53.416 : en:Chapter 13
01:23:36.541 : en:Chapter 14
01:32:00.791 : en:Chapter 15
01:37:08.875 : en:Chapter 16
скриншот  скриншот  скриншот  
piratbit.org



Скачать Голодные Z через торрент https://i102.fastpic.ru/big/2018/0907/ff/1bbc180d3900a745c4cb2c090bb3c4ff.jpg Скачать фильм Голодные Z через торрент бесплантно в хорошем качестве О фильме: В небольшой деревушке неподалеку от Квебека все изменилось. Местные жители уже не те, что раньше: их тела разлагаются, а сами они ... 5.5 10 4
Торрент: Зарегистрирован [2018-09-07 12:11] · скачан: 8 раз
Статус: √ проверено
Размер: 1.86 GB
Как cкачать? Как скачать Голодные Z через торрент | UTorrent

% Раздел Тема Автор DL S | L
Фильмы 2017 [DVDrip, WEB-DLRip, HDrip] (DUB, MVO) [ 1.42 GB ] Голодные Z / Les affames / Ravenous [2017 BDRip] - Twi7ter Скачать
1 | 0
Фильмы 2017 [DVDrip, WEB-DLRip, HDrip] (DUB, MVO) [ 1.54 GB ] Голодные Z / Les affames / Ravenous [2017 BDRip-AVC] bober100 Скачать
1 | 0
Фильмы [HD 720p, 1080p] (Хороший звук DUB, MVO) [ 8.39 GB ] Голодные Z / Les affames / Ravenous [2017 BDRip 1080p] DUB bober100 Скачать
1 | 0
Фильмы (Blu-ray, BD-Remux, HDDVD) [ 18.01 GB ] Голодные Z / Les affames / Ravenous [2017 BD Remux 1080p] DUB bober100 Скачать
1 | 0
Фильмы [HD 720p, 1080p] (Хороший звук DUB, MVO) [ 2.86 GB ] Голодные Z / Les affames / Ravenous [2017 BDRip 720p] DUB bober100 Скачать
1 | 0
Фильмы 2017 [DVDrip, WEB-DLRip, HDrip] (DUB, MVO) [ 1.42 GB ] Голодные Z / Les affames / Ravenous [2017 BDRip] bober100 Скачать
1 | 0

28-11-2019 20:33  

Отключить всю рекламу на сайте

    Дорогой пользователь! Огромная просьба, поблагодарите релизера, оцените раздачу и оставьте свои комментарий, если Вы скачали Голодные Z через торрент бесплатно! Внесите свою лепту в развитие PiratBit!
    Комментировать посты могут только пользователи прошедшие не сложную регистрацию
    Показать сообщения:    

    Голодные Z через торрент
    Скачать бесплатно Голодные Z
    Голодные Z скачать торрент
    Голодные Z смотреть онлайн
    Cкачать фильм Голодные Z бесплатно
    Голодные Z скачать торрент в хорошем качестве
    Голодные Z смотреть онлайн бесплатно в хорошем качестве


    Вы не можете начинать темы
    Вы не можете отвечать на сообщения
    Вы не можете редактировать свои сообщения
    Вы не можете удалять свои сообщения
    Вы не можете голосовать в опросах
    Вы не можете прикреплять файлы к сообщениям
    Вы можете скачивать файлы