Лицензия

MVO

1

1 сезон

Лицензия

Лицензия

13

MVO

1 сезон

Deluxe Edition

pack

Рекомендуем

30

Repack

ВАЖНО

ВАЖНО

Ghostwire

RePack

jed

RePack

fifa19

RePack

RDR2

RePack

NEED FOR SPEED™ PAYBACK

RePack

Кинопоиск HD

 Острые козырьки 6 сезон

6 сезон

FAR CRY 6

RePack

Лицензия

MVO

1

1 сезон

1 сезон

Лицензия

  

Водил поезда машинист (Виктор Жилин) [1961, СССР, драма, военный, SATRip от AVP Studio]

Водил поезда машинист через торрент piratbit.org

Размер: 745 MB | Добавлен: 4 года назад | Торрент скачан:10 раз
Смотреть онлайн Водил поезда машинист | Скачать   

08-09-2018 07:14 Водил поезда машинист Скачать торрент  

Водил поезда машинист
Страна: СССР
Производство: Одесская киностудия

Жанр: драма, военный
Год выпуска: 1961
Продолжительность: 01:11:592

Перевод: Не требуется
Cубтитры: нет
Оригинальная аудиодорожка: русский

Режиссер: Виктор Жилин

В ролях:
Григорий Гай, Людмила Люлько, Георгий Жжёнов, Леонид Куравлёв, Зинаида Сорочинская, Анна Дубровина, Светлана Коновалова, Владимир Емельянов...
Об актёрах подробней

Описание:
Русская девушка Ольга Ручьёва, угнанная гитлеровскими оккупантами на Запад, работает стрелочницей на полустанке. Мимо нее каждый день проходят эшелоны с военнопленными-каторжанами. Ольга знакомится с машинистом Федором и с его помощью организует побег товарищей по лагерю. Но план срывается, и беглецов расстреливают. И только чудом оставшийся в живых Федор попадает на Родину. А через шестнадцать лет после войны случай опять сводит его с Ольгой, когда герой с тяжелыми ожогами после аварии попадает в больницу. Ольга верила, что её любимый не погиб и теперь они уже никогда не расстанутся...

Исходник: DVB
Качество видео: SATRip
Формат видео: AVI

Видео: 688x512 (4:3), 25,000 кадров/сек, XviD ~ 1248 kbps avg, 0.142 bit/pixel
Аудио: 48 kHz, Dolby Digital AC3 2.0, 192 kbps

Раздача от:
Общее
Полное имя : Vodil.poezda.mashinist.1961.SATRip_[New-team]_by_AVP_Studio.avi
Формат : AVI
Формат/Информация : Audio Video Interleave
Размер файла : 745 Мбайт
Продолжительность : 1 ч. 11 м.
Общий поток : 1450 Кбит/сек
Программа кодирования : VirtualDubMod 1.5.10.3 | www.virtualdub-fr.org || (build 2550/release)
Библиотека кодирования : VirtualDubMod build 2550/release

Видео
Идентификатор : 0
Формат : MPEG-4 Visual
Профиль формата : Advanced Simple@L5
Настройки формата : BVOP1 / Custom Matrix
Параметр BVOP формата : 1
Параметр QPel формата : Нет
Параметр GMC формата : Без точки перехода
Параметр матрицы формата : Выборочная
Идентификатор кодека : XVID
Идентификатор кодека/Подсказка : XviD
Продолжительность : 1 ч. 11 м.
Битрейт : 1248 Кбит/сек
Ширина : 688 пикселей
Высота : 512 пикселей
Соотношение сторон : 4:3
Частота кадров : 25,000 кадров/сек
Цветовое пространство : YUV
Субдискретизация насыщенности : 4:2:0
Битовая глубина : 8 бит
Тип развёртки : Прогрессивная
Метод сжатия : С потерями
Бит/(Пиксели*Кадры) : 0.142
Размер потока : 641 Мбайт (86%)
Библиотека кодирования : XviD 73

Аудио
Идентификатор : 1
Формат : AC-3
Формат/Информация : Audio Coding 3
Коммерческое название : Dolby Digital
Идентификатор кодека : 2000
Продолжительность : 1 ч. 11 м.
Вид битрейта : Постоянный
Битрейт : 192 Кбит/сек
Каналы : 2 канала
Channel layout : L R
Частота : 48,0 КГц
Частота кадров : 31,250 кадров/сек (1536 SPF)
Битовая глубина : 16 бит
Метод сжатия : С потерями
Размер потока : 98,7 Мбайт (13%)
Выравнивание : Разделение по промежуткам
Продолжительность промежутка : 40 мс. (1,00 видеокадр)
Время предзагрузки промежутка : 500 мс



Скачать Водил поезда машинист через торрент http://picplus.ru/img/1809/07/e1e19a72.png Скачать, смотреть онлайн Водил поезда машинист бесплантно в хорошем качестве Описание:Русская девушка Ольга Ручьёва, угнанная гитлеровскими оккупантами на Запад, работает стрелочницей на полустанке. Мимо нее каждый ... 5 10 1
Info! Золотая раздача, скачанное не засчитывается.
Торрент: Зарегистрирован [2018-09-08 07:14] · скачан: 10 раз
Статус: √ проверено
Размер: 745 MB
Как cкачать? Как скачать Водил поезда машинист через торрент | UTorrent

% Раздел Тема Автор DL S | L
Кино СССР [ 745 MB ] Водил поезда машинист | | SATRip-AVC от AVP Studio AVP Studio Скачать
1 | 0

28-11-2019 20:33  

Отключить вcю реклaмy на сайте

    Дорогой пользователь! Огромная просьба, поблагодарите релизера, оцените раздачу и оставьте свои комментарий, если Вы скачали Водил поезда машинист через торрент бесплатно!!
    Комментировать посты могут только пользователи прошедшие не сложную регистрацию
    Показать сообщения:    


    Водил поезда машинист через торрент
    Скачать бесплатно Водил поезда машинист
    Водил поезда машинист скачать торрент
    Водил поезда машинист смотреть онлайн
    Cкачать фильм Водил поезда машинист бесплатно
    Водил поезда машинист скачать торрент в хорошем качестве
    Водил поезда машинист смотреть онлайн бесплатно в хорошем качестве
    Вы не можете начинать темы
    Вы не можете отвечать на сообщения
    Вы не можете редактировать свои сообщения
    Вы не можете удалять свои сообщения
    Вы не можете голосовать в опросах
    Вы не можете прикреплять файлы к сообщениям
    Вы можете скачивать файлы