Достать ножи: Стеклянная луковица

MVO

Добыча

Дубляж

Уэнсдэй

1 сезон

Тор

Дубляж

13 клиническая

1 сезон

Жестокая ночь

MVO

Одни из нас

1 сезон

Deluxe

pack

Рекомендуем

30

Пиратка

ВАЖНО

ВАЖНО

Ghostwire

Пиратка

jed

RePack

nioh2

RePack

RDR2

RePack

NEED FOR SPEED™ PAYBACK

RePack

скачать торрент

Кинопоиск HD

Острые козырьки 6 сезон

6 сезон

FAR CRY 6

RePack

скачать торрент

Лицензия

скачать торрент

MVO

1

1 сезон

скачать торрент

1 сезон

скачать торрент

Лицензия

  

Мир Юрского периода 2 / Jurassic World: Fallen Kingdom (Хуан Антонио Байона) [2018, фантастика, боевик, приключения, UHD BDRemux 2160p] Дубляж (rus, ukr) [Лицензия]

Мир Юрского периода 2 через торрент piratbit.org

Размер: 45.3 GB | Добавлен: 4 года 4 мес. назад | Торрент скачан:140 раз
Смотреть онлайн | Скачать | Поддержите нас   

09-09-2018 05:18 Мир Юрского периода 2 Скачать торрент  

Мир Юрского периода 2 / Jurassic World: Fallen Kingdom«Жизнь нельзя остановить»
Год выпуска: 2018
Страна: США
Жанр: фантастика, боевик, приключения
Продолжительность: 02:08:17
Перевод: Дублированный | Лицензия
Субтитры: Русские, английские, украинские
Режиссер: Хуан Антонио Байона
В ролях:

Крис Пратт (Owen Grady), Брайс Даллас Ховард (Claire Dearing), Рейф Сполл (Eli Mills), Джастис Смит (Franklin Webb), Даниэлла Пинеда (Zia Rodriguez), Джеймс Кромуэлл (Benjamin Lockwood), Тоби Джонс (Mr. Eversol), Тед Левайн (Ken Wheatley), Джефф Голдблюм (Ian Malcolm), Б.Д. Вонг (Dr. Wu), Джеральдин Чаплин (Iris), Изабелла Сермон (Maisie Lockwood)
Описание:
На острове Нублар, где не так давно располагался парк развлечений с динозаврами, правит бал дикая природа, но внезапно пробудившийся вулкан угрожает стереть динозавров с лица земли. Бывшая управляющая парком Клэр Диринг переквалифицировалась в защитницу исчезающих видов и пытается сделать всё, чтобы спасти доисторических животных. На неё выходит Илай Миллс - доверенное лицо миллиардера Бенждамина Локвуда, который много лет назад был соратником профессора Хаммонда. Миллс предлагает Клэр, знакомой с системой безопасности парка, поехать на остров и помочь ему поймать нескольких особей, чтобы вывести их на другой безопасный остров. Клэр даже удается уговорить своего бывшего парня, дрессировщика Оуэена, принять участие в спасательной миссии, но по прибытии в парк, выясняется, что у Миллса совсем другие цели.
Рейтинг:

MPAA: PG-13 - Детям до 13 лет просмотр не желателен
Качество: UHD BDRemux 2160p
Формат: MKV
Видео: HEVC, HDR, 44266 Кбит/с, 3840x2160, 23.976 Кадр/c
Аудио 1: Русский / DTS / 48 KHz / 5.1 ch / 768 Kbps (Дубляж -Лицензия)
Аудио 2: Русский / AC3 / 48 KHz / 5.1 ch / 448 Kbps (Дубляж -Лицензия)
Аудио 3: Украинский / AC3 / 48 KHz / 2 ch / 192 Kbps (Дубляж)
Аудио 4: Английский / DTS-HD MA / 48 KHz / 7.1 ch / 4231 Kbps (Original)
Аудио 5: Английский / AC3 / 48 KHz / 5.1 ch / 640 Kbps (Original)
Навигация по главам: есть
Общее
Уникальный идентификатор : 211431385135811644013223198981168949503 (0x9F10341DED07C93FB0A86569A061E8FF)
Полное имя : G:\JurassicWorld2.2018.BDRemux.2160p.10bit.HEVC.HDR.4K.x265.Master5.mkv
Формат : Matroska
Версия формата : Version 4 / Version 2
Размер файла : 45,3 Гбайт
Продолжительность : 2 ч. 8 м.
Общий поток : 50,5 Мбит/сек
Название фильма : JurassicWorld2.2018.BDRemux.2160p.10bit.HEVC.HDR.4K.x265.Master5
Дата кодирования : UTC 2018-09-27 23:01:53
Программа кодирования : mkvmerge v7.9.0 ('Birds') 64bit
Библиотека кодирования : libebml v1.3.1 + libmatroska v1.4.2
Обложка : Yes
Attachments : small_cover.jpg / small_cover_land.jpg / cover.jpg / cover_land.jpg

Видео
Идентификатор : 1
Формат : HEVC
Формат/Информация : High Efficiency Video Coding
Коммерческое название : HDR10
Профиль формата : Main 10@L5.1@High
Идентификатор кодека : V_MPEGH/ISO/HEVC
Продолжительность : 2 ч. 8 м.
Битрейт : 44,3 Мбит/сек
Ширина : 3840 пикселей
Высота : 2160 пикселей
Соотношение сторон : 16:9
Режим частоты кадров : Постоянный
Частота кадров : 23,976 (24000/1001) кадра/сек
Цветовое пространство : YUV
Субдискретизация насыщенности : 4:2:0 (Type 2)
Битовая глубина : 10 бит
Бит/(Пиксели*Кадры) : 0.223
Размер потока : 39,7 Гбайт (88%)
Заголовок : JurassicWorld2.2018.BDRemux.2160p.10bit.HEVC.HDR.4K.x265.Master5
Язык : English
Default : Да
Forced : Нет
Цветовой диапазон : Limited
Основные цвета : BT.2020
Характеристики трансфера : PQ
Коэффициенты матрицы : BT.2020 non-constant
MasteringDisplay_ColorPrimaries : Display P3
MasteringDisplay_Luminance : min: 0.0001 cd/m2, max: 1000 cd/m2
MaxCLL : 1000 cd/m2
MaxFALL : 153 cd/m2

Аудио #1
Идентификатор : 2
Формат : DTS
Формат/Информация : Digital Theater Systems
Идентификатор кодека : A_DTS
Продолжительность : 2 ч. 8 м.
Вид битрейта : Постоянный
Битрейт : 768 Кбит/сек
Каналы : 6 каналов
Расположение каналов : Front: L C R, Side: L R, LFE
Частота : 48,0 КГц
Частота кадров : 93,750 кадра/сек (512 SPF)
Битовая глубина : 24 бит
Метод сжатия : С потерями
Размер потока : 705 Мбайт (2%)
Заголовок : Дубляж License
Язык : Russian
Default : Да
Forced : Да

Аудио #2
Идентификатор : 3
Формат : AC-3
Формат/Информация : Audio Coding 3
Идентификатор кодека : A_AC3
Продолжительность : 2 ч. 8 м.
Вид битрейта : Постоянный
Битрейт : 448 Кбит/сек
Каналы : 6 каналов
Расположение каналов : Front: L C R, Side: L R, LFE
Частота : 48,0 КГц
Частота кадров : 31,250 кадров/сек (1536 SPF)
Битовая глубина : 16 бит
Метод сжатия : С потерями
Размер потока : 411 Мбайт (1%)
Заголовок : Дубляж License
Язык : Russian
ServiceKind/String : Complete Main
Default : Нет
Forced : Нет

Аудио #3
Идентификатор : 4
Формат : AC-3
Формат/Информация : Audio Coding 3
Идентификатор кодека : A_AC3
Продолжительность : 2 ч. 8 м.
Вид битрейта : Постоянный
Битрейт : 192 Кбит/сек
Каналы : 2 канала
Расположение каналов : Front: L R
Частота : 48,0 КГц
Частота кадров : 31,250 кадров/сек (1536 SPF)
Битовая глубина : 16 бит
Метод сжатия : С потерями
Размер потока : 176 Мбайт (0%)
Заголовок : Дубляж
Язык : Ukrainian
ServiceKind/String : Complete Main
Default : Нет
Forced : Нет

Аудио #4
Идентификатор : 5
Формат : DTS
Формат/Информация : Digital Theater Systems
Профиль формата : X / MA / Core
Идентификатор кодека : A_DTS
Продолжительность : 2 ч. 8 м.
Вид битрейта : Переменный / Переменный / Постоянный
Битрейт : 4231 Кбит/сек / 4231 Кбит/сек / 1509 Кбит/сек
Каналы : Object Based / 8 каналов / 6 каналов
Расположение каналов : Object Based / Front: L C R, Side: L R, Back: L R, LFE / Front: L C R, Side: L R, LFE
Частота : / 48,0 КГц / 48,0 КГц
Частота кадров : 93,750 кадра/сек (512 SPF)
Битовая глубина : / 24 бит / 24 бит
Метод сжатия : / Lossless / Lossy
Размер потока : 3,79 Гбайт (8%)
Заголовок : Original
Язык : English
Default : Нет
Forced : Нет

Аудио #5
Идентификатор : 6
Формат : AC-3
Формат/Информация : Audio Coding 3
Идентификатор кодека : A_AC3
Продолжительность : 2 ч. 8 м.
Вид битрейта : Постоянный
Битрейт : 640 Кбит/сек
Каналы : 6 каналов
Расположение каналов : Front: L C R, Side: L R, LFE
Частота : 48,0 КГц
Частота кадров : 31,250 кадров/сек (1536 SPF)
Битовая глубина : 16 бит
Метод сжатия : С потерями
Размер потока : 587 Мбайт (1%)
Заголовок : Original
Язык : English
ServiceKind/String : Complete Main
Default : Нет
Forced : Нет

Текст #1
Идентификатор : 7
Формат : UTF-8
Идентификатор кодека : S_TEXT/UTF8
Идентификатор кодека/Информация : UTF-8 Plain Text
Продолжительность : 1 ч. 34 м.
Битрейт : 0 бит/сек
ElementCount : 6
Размер потока : 296 байт (0%)
Заголовок : Форсированные
Язык : Russian
Default : Да
Forced : Нет

Текст #2
Идентификатор : 8
Формат : UTF-8
Идентификатор кодека : S_TEXT/UTF8
Идентификатор кодека/Информация : UTF-8 Plain Text
Продолжительность : 1 ч. 56 м.
Битрейт : 73 бит/сек
ElementCount : 1725
Размер потока : 62,7 Кбайт (0%)
Заголовок : Полные
Язык : Russian
Default : Нет
Forced : Нет

Текст #3
Идентификатор : 9
Формат : UTF-8
Идентификатор кодека : S_TEXT/UTF8
Идентификатор кодека/Информация : UTF-8 Plain Text
Продолжительность : 2 ч. 6 м.
Битрейт : 66 бит/сек
ElementCount : 1395
Размер потока : 62,1 Кбайт (0%)
Заголовок : Полные
Язык : Russian
Default : Нет
Forced : Нет

Текст #4
Идентификатор : 10
Формат : UTF-8
Идентификатор кодека : S_TEXT/UTF8
Идентификатор кодека/Информация : UTF-8 Plain Text
Продолжительность : 1 ч. 34 м.
Битрейт : 0 бит/сек
ElementCount : 7
Размер потока : 333 байт (0%)
Заголовок : Форсированные
Язык : Ukrainian
Default : Нет
Forced : Нет

Текст #5
Идентификатор : 11
Формат : UTF-8
Идентификатор кодека : S_TEXT/UTF8
Идентификатор кодека/Информация : UTF-8 Plain Text
Продолжительность : 1 ч. 55 м.
Битрейт : 42 бит/сек
ElementCount : 1198
Размер потока : 36,2 Кбайт (0%)
Заголовок : Full
Язык : English
Default : Нет
Forced : Нет

Текст #6
Идентификатор : 12
Формат : UTF-8
Идентификатор кодека : S_TEXT/UTF8
Идентификатор кодека/Информация : UTF-8 Plain Text
Продолжительность : 2 ч. 7 м.
Битрейт : 48 бит/сек
ElementCount : 1771
Размер потока : 45,4 Кбайт (0%)
Заголовок : SDH
Язык : English
Default : Нет
Forced : Нет

Меню
00:00:00.000 : :1
00:07:13.223 : :2
00:12:01.553 : :3
00:17:17.744 : :4
00:21:17.192 : :5
00:28:49.810 : :6
00:35:04.684 : :7
00:40:51.574 : :8
00:46:32.498 : :9
00:52:04.996 : :10
01:00:59.197 : :11
01:06:50.255 : :12
01:11:07.637 : :13
01:17:21.094 : :14
01:26:55.210 : :15
01:33:01.492 : :16
01:42:55.877 : :17
01:50:01.552 : :18
01:54:56.221 : :19
01:58:37.984 : :20



Скачать Мир Юрского периода 2 через торрент https://b.radikal.ru/b43/1809/e3/3239bea20fba.jpg Скачать, смотреть онлайн Мир Юрского периода 2 бесплантно в хорошем качестве Описание: На острове Нублар, где не так давно располагался парк развлечений с динозаврами, правит бал дикая природа, но внезапно ... 10 10 16
Info! Золотая раздача, скачанное не засчитывается.
Торрент: Зарегистрирован [2018-09-28 02:21] · скачан: 140 раз
Статус: √ проверено
Размер: 45.3 GB
Как cкачать? Как скачать Мир Юрского периода 2 через торрент | UTorrent

% Раздел Тема Автор DL S | L
Фильмы (HD 720p, 1080p) (48-60 fps) [ 3.92 GB ] Мир Юрского периода 2 / Jurassic World: Fallen Kingdom | Дубляж | 720p / 60 FPS slaventi-69 Скачать
2 | 0
3D Фильмы [ 15.61 GB ] Мир Юрского периода 2 в 3Д / Jurassic World: Fallen Kingdom 3D | | 1080p serega768 Скачать
1 | 0
Фильмы [HD 720p, 1080p] (Хороший звук DUB, MVO) [ 5.4 GB ] Мир Юрского периода 2 / Jurassic World: Fallen Kingdom | Лицензия | 1080p, HEVC (10bit Мичман37 Скачать
1 | 0
Ultra HD (UHD: 2K, 4K, 8K) [ 77.49 GB ] Мир Юрского периода 2 / Jurassic World: Fallen Kingdom | DUB | 2160p sheker187 Скачать
1 | 0
Фильмы (HD 720p, 1080p) (48-60 fps) [ 10.62 GB ] Мир Юрского периода 2 / Jurassic World: Fallen Kingdom | Лицензия | 1080p, 60 fps bober100 Скачать
1 | 1
Фильмы (Blu-ray, BD-Remux, HDDVD) [ 41.63 GB ] Мир Юрского периода 2 / Jurassic World: Fallen Kingdom | Лицензия | 1080p bober100 Скачать
1 | 0
3D Фильмы [ 10.8 GB ] Мир Юрского периода 2 в 3Д / Jurassic World: Fallen Kingdom 3D | DUB | 1080p sheker187 Скачать
1 | 0



Последний раз редактировалось: sheker187 (2018-09-28 02:27), всего редактировалось 1 раз

28-11-2019 20:33  


Отключить вcю реклaмy на сайте, в т.ч. и в плеере онлайн просмотра!

28-09-2018 02:22 Мир Юрского периода 2 Скачать торрент  

Лицензия



28-09-2018 17:05 Мир Юрского периода 2 Скачать торрент  

В Dolby Vision добавьте лицензионный звук DTS ,плиз



    Дорогой пользователь! Огромная просьба, поблагодарите релизера, оцените раздачу и оставьте свои комментарий, если Вы скачали Мир Юрского периода 2 через торрент бесплатно!!
    Комментировать посты могут только пользователи прошедшие не сложную регистрацию
    Показать сообщения:    


    Мир Юрского периода 2 через торрент
    Скачать бесплатно Мир Юрского периода 2
    Мир Юрского периода 2 скачать торрент
    Мир Юрского периода 2 смотреть онлайн
    Cкачать фильм Мир Юрского периода 2 бесплатно
    Мир Юрского периода 2 скачать торрент в хорошем качестве
    Мир Юрского периода 2 смотреть онлайн бесплатно в хорошем качестве
    Вы не можете начинать темы
    Вы не можете отвечать на сообщения
    Вы не можете редактировать свои сообщения
    Вы не можете удалять свои сообщения
    Вы не можете голосовать в опросах
    Вы не можете прикреплять файлы к сообщениям
    Вы можете скачивать файлы
    Мир Юрского периода 2 / Jurassic World: Fallen Kingdom [2018, фантастика, боевик, приключения, UHD BDRemux 2160p] Дубляж [Лицензия] смотреть онлайн, скачать торрент picoco.icu