Достать ножи: Стеклянная луковица

MVO

Добыча

Дубляж

Уэнсдэй

1 сезон

Тор

Дубляж

13 клиническая

1 сезон

Жестокая ночь

MVO

Одни из нас

1 сезон

Deluxe

pack

Рекомендуем

30

Пиратка

ВАЖНО

ВАЖНО

Ghostwire

Пиратка

jed

RePack

nioh2

RePack

RDR2

RePack

NEED FOR SPEED™ PAYBACK

RePack

скачать торрент

Кинопоиск HD

Острые козырьки 6 сезон

6 сезон

FAR CRY 6

RePack

скачать торрент

Лицензия

скачать торрент

MVO

1

1 сезон

скачать торрент

1 сезон

скачать торрент

Лицензия

  

Форма воды / The Shape of Water (Гильермо дель Торо) [2017, фэнтези, драма, UHD BDRemux 2160p] Дубляж [Лицензия] + AVO [С. Визгунов]

Форма воды через торрент piratbit.org

Размер: 55.35 GB | Добавлен: 4 года 4 мес. назад | Торрент скачан:24 раза
Смотреть онлайн | Скачать | Поддержите нас   

09-09-2018 13:52 Форма воды Скачать торрент  

Форма воды / The Shape of Water«A Fairy Tale for Troubled Times» Год выпуска: 2017
Страна: США
Жанр: фэнтези, драма
Продолжительность: 02:03:19
Перевод: Дублированный, авторский
Субтитры: Русские, английские
Режиссер: Гильермо дель Торо
В ролях:

Салли Хокинс (Elisa Esposito), Майкл Шеннон (Richard Strickland), Ричард Дженкинс (Giles), Октавия Спенсер (Zelda Fuller), Майкл Стулбарг (Dr. Robert Hoffstetler), Даг Джонс (Amphibian Man), Дэвид Хьюлетт (Fleming), Ник Сирси (General Hoyt), Стюарт Арнотт (Bernard), Найджел Беннетт (Mihalkov), Лорен Ли Смит (Elaine Strickland), Мартин Роуч (Brewster Fuller)
Описание:
Действие разворачивается в 1963 году. Главная героиня - немая уборщица в научной лаборатории. В стенах секретного учреждения идёт работа по изучению отловленного человека-амфибии. Женщина влюбляется в мутанта и помогает ему бежать...
Рейтинг:

MPAA: R - Лицам до 17 лет обязательно присутствие взрослого
Качество: UHD BDRemux 2160p
Формат: MKV
Видео: HEVC, HDR, 51849 Кбит/с, 3840x2160, 23.976 кадр/с
Аудио 1: Russian DTS / 5.1 / 48 kHz / 768 kbps / 24-bit |Дубляж, Blu-Ray|
Аудио 2: Russian DTS-HD Master Audio / 5.1 / 48 kHz / 3928 kbps / 24-bit (DTS Core: 5.1 / 48 kHz / 1509 kbps / 24-bit) |Дубляж, Custom|
Аудио 3: Russian DTS-HD Master Audio / 5.1 / 48 kHz / 3840 kbps / 24-bit (DTS Core: 5.1 / 48 kHz / 1509 kbps / 24-bit) |С. Визгунов|
Аудио 4: English DTS-HD Master Audio / 5.1 / 48 kHz / 3840 kbps / 24-bit (DTS Core: 5.1 / 48 kHz / 1509 kbps / 24-bit) |original|
Навигация по главам: Есть

Оскар, 2018 год
Победитель (4):
Лучший фильм
Лучший режиссер (Гильермо дель Торо)
Лучший саундтрек
Лучшая работа художника-постановщика
Номинации (9):
Лучшая женская роль (Салли Хокинс)
Лучшая мужская роль второго плана (Ричард Дженкинс)
Лучшая женская роль второго плана (Октавия Спенсер)
Лучший сценарий
Лучшая работа оператора
Лучшие костюмы
Лучший звук
Лучший монтаж
Лучший монтаж звука

Золотой глобус, 2018 год
Победитель (2):
Лучший режиссер (Гильермо дель Торо)
Лучший саундтрек
Номинации (5):
Лучший фильм (драма)
Лучшая женская роль (драма) (Салли Хокинс)
Лучшая мужская роль второго плана (Ричард Дженкинс)
Лучшая женская роль второго плана (Октавия Спенсер)
Лучший сценарий

Британская академия, 2018 год
Победитель (3):
Лучший саундтрек
Лучшая работа художника-постановщика (Пол Д. Остерберри , Джеффри А. Мелвин , Шэйн Виё)
Премия имени Дэвида Лина за достижения в режиссуре (Гильермо дель Торо)
Номинации (9):
Лучший фильм
Лучшая женская роль (Салли Хокинс)
Лучшая женская роль второго плана (Октавия Спенсер)
Лучший оригинальный сценарий
Лучшая работа оператора (Дан Лаустсен)
Лучшие костюмы
Лучший звук
Лучший монтаж
Лучшие визуальные эффекты

Премия Гильдии актеров, 2018 год
Номинации (2):
Лучшая женская роль (Салли Хокинс)
Лучшая мужская роль второго плана (Ричард Дженкинс)

Венецианский кинофестиваль, 2017 год
Победитель (3):
Золотой лев
Премия Future Film Festival Digital Award
Премия Soundtrack Stars
Общее
Уникальный идентификатор : 30202821408937724973593926350891060397 (0x16B8DA109712CE432259D622AC2F0CAD)
Полное имя : H:\UHD\Форма воды.2017.UHD.BluRay.Remux.2160p.mkv
Формат : Matroska
Версия формата : Version 4 / Version 2
Размер файла : 55,4 Гбайт
Продолжительность : 2 ч. 3 м.
Общий поток : 64,3 Мбит/сек
Дата кодирования : UTC 2018-09-08 11:27:21
Программа кодирования : mkvmerge v26.0.0 ('In The Game') 64-bit
Библиотека кодирования : libebml v1.3.6 + libmatroska v1.4.9
Attachments : poster.jpg

Видео
Идентификатор : 1
Формат : HEVC
Формат/Информация : High Efficiency Video Coding
Коммерческое название : HDR10
Профиль формата : Main 10@L5.1@High
Идентификатор кодека : V_MPEGH/ISO/HEVC
Продолжительность : 2 ч. 3 м.
Битрейт : 51,8 Мбит/сек
Ширина : 3840 пикселей
Высота : 2160 пикселей
Соотношение сторон : 16:9
Режим частоты кадров : Постоянный
Частота кадров : 23,976 (24000/1001) кадра/сек
Цветовое пространство : YUV
Субдискретизация насыщенности : 4:2:0 (Type 2)
Битовая глубина : 10 бит
Бит/(Пиксели*Кадры) : 0.261
Размер потока : 44,7 Гбайт (81%)
Default : Да
Forced : Нет
Цветовой диапазон : Limited
Основные цвета : BT.2020
Характеристики трансфера : PQ
Коэффициенты матрицы : BT.2020 non-constant
MasteringDisplay_ColorPrimaries : Display P3
MasteringDisplay_Luminance : min: 0.0050 cd/m2, max: 1000 cd/m2

Аудио #1
Идентификатор : 2
Формат : DTS
Формат/Информация : Digital Theater Systems
Идентификатор кодека : A_DTS
Продолжительность : 2 ч. 3 м.
Вид битрейта : Постоянный
Битрейт : 768 Кбит/сек
Каналы : 6 каналов
Расположение каналов : Front: L C R, Side: L R, LFE
Частота : 48,0 КГц
Частота кадров : 93,750 кадра/сек (512 SPF)
Битовая глубина : 24 бит
Метод сжатия : С потерями
Размер потока : 677 Мбайт (1%)
Заголовок : Дубляж, Blu-Ray
Язык : Russian
Default : Да
Forced : Нет

Аудио #2
Идентификатор : 3
Формат : DTS
Формат/Информация : Digital Theater Systems
Профиль формата : MA / Core
Идентификатор кодека : A_DTS
Продолжительность : 2 ч. 3 м.
Вид битрейта : Переменный / Постоянный
Битрейт : 3928 Кбит/сек / 1509 Кбит/сек
Каналы : 6 каналов
Расположение каналов : Front: L C R, Side: L R, LFE
Частота : 48,0 КГц
Частота кадров : 93,750 кадра/сек (512 SPF)
Битовая глубина : 24 бит
Метод сжатия : Без потерь / Lossy
Размер потока : 3,38 Гбайт (6%)
Заголовок : Дубляж, Custom
Язык : Russian
Default : Нет
Forced : Нет

Аудио #3
Идентификатор : 4
Формат : DTS
Формат/Информация : Digital Theater Systems
Профиль формата : MA / Core
Идентификатор кодека : A_DTS
Продолжительность : 2 ч. 3 м.
Вид битрейта : Переменный / Постоянный
Битрейт : 3840 Кбит/сек / 1509 Кбит/сек
Каналы : 6 каналов
Расположение каналов : Front: L C R, Side: L R, LFE
Частота : 48,0 КГц
Частота кадров : 93,750 кадра/сек (512 SPF)
Битовая глубина : 24 бит
Метод сжатия : Без потерь / Lossy
Размер потока : 3,34 Гбайт (6%)
Заголовок : С. Визгунов
Язык : Russian
Default : Нет
Forced : Нет

Аудио #4
Идентификатор : 5
Формат : DTS
Формат/Информация : Digital Theater Systems
Профиль формата : MA / Core
Идентификатор кодека : A_DTS
Продолжительность : 2 ч. 3 м.
Вид битрейта : Переменный / Постоянный
Битрейт : 3840 Кбит/сек / 1509 Кбит/сек
Каналы : 6 каналов
Расположение каналов : Front: L C R, Side: L R, LFE
Частота : 48,0 КГц
Частота кадров : 93,750 кадра/сек (512 SPF)
Битовая глубина : 24 бит
Метод сжатия : Без потерь / Lossy
Размер потока : 3,30 Гбайт (6%)
Язык : English
Default : Нет
Forced : Нет

Текст #1
Идентификатор : 6
Формат : UTF-8
Идентификатор кодека : S_TEXT/UTF8
Идентификатор кодека/Информация : UTF-8 Plain Text
Продолжительность : 1 ч. 48 м.
Битрейт : 1 бит/сек
ElementCount : 60
Размер потока : 1,29 Кбайт (0%)
Заголовок : forced
Язык : Russian
Default : Да
Forced : Нет

Текст #2
Идентификатор : 7
Формат : UTF-8
Идентификатор кодека : S_TEXT/UTF8
Идентификатор кодека/Информация : UTF-8 Plain Text
Продолжительность : 1 ч. 56 м.
Битрейт : 72 бит/сек
ElementCount : 1263
Размер потока : 61,7 Кбайт (0%)
Заголовок : full
Язык : Russian
Default : Нет
Forced : Нет

Текст #3
Идентификатор : 8
Формат : UTF-8
Идентификатор кодека : S_TEXT/UTF8
Идентификатор кодека/Информация : UTF-8 Plain Text
Продолжительность : 1 ч. 56 м.
Битрейт : 67 бит/сек
ElementCount : 1012
Размер потока : 57,8 Кбайт (0%)
Заголовок : FOCS
Язык : Russian
Default : Нет
Forced : Нет

Текст #4
Идентификатор : 9
Формат : UTF-8
Идентификатор кодека : S_TEXT/UTF8
Идентификатор кодека/Информация : UTF-8 Plain Text
Продолжительность : 1 ч. 47 м.
Битрейт : 3 бит/сек
ElementCount : 169
Размер потока : 2,51 Кбайт (0%)
Заголовок : forced
Язык : English
Default : Нет
Forced : Нет

Текст #5
Идентификатор : 10
Формат : UTF-8
Идентификатор кодека : S_TEXT/UTF8
Идентификатор кодека/Информация : UTF-8 Plain Text
Продолжительность : 2 ч. 1 м.
Битрейт : 48 бит/сек
ElementCount : 1555
Размер потока : 43,0 Кбайт (0%)
Заголовок : full
Язык : English
Default : Нет
Forced : Нет

Текст #6
Идентификатор : 11
Формат : UTF-8
Идентификатор кодека : S_TEXT/UTF8
Идентификатор кодека/Информация : UTF-8 Plain Text
Продолжительность : 2 ч. 2 м.
Битрейт : 56 бит/сек
ElementCount : 1928
Размер потока : 51,3 Кбайт (0%)
Заголовок : SDH
Язык : English
Default : Нет
Forced : Нет

Меню
00:00:00.000 : :00:00:00.000
00:06:24.467 : :00:06:24.467
00:12:54.774 : :00:12:54.774
00:18:32.987 : :00:18:32.987
00:23:45.591 : :00:23:45.591
00:29:39.653 : :00:29:39.653
00:35:29.836 : :00:35:29.836
00:39:30.535 : :00:39:30.535
00:42:42.435 : :00:42:42.435
00:48:34.036 : :00:48:34.036
00:52:26.935 : :00:52:26.935
00:57:30.197 : :00:57:30.197
01:01:52.542 : :01:01:52.542
01:07:35.551 : :01:07:35.551
01:12:13.496 : :01:12:13.496
01:17:50.791 : :01:17:50.791
01:21:17.122 : :01:21:17.122
01:26:05.911 : :01:26:05.911
01:32:48.480 : :01:32:48.480
01:37:18.750 : :01:37:18.750
01:43:24.115 : :01:43:24.115
01:46:06.610 : :01:46:06.610
01:50:31.667 : :01:50:31.667
01:58:34.858 : :01:58:34.858



Скачать Форма воды через торрент https://b.radikal.ru/b03/1809/04/6bddd32da7cf.png Скачать, смотреть онлайн Форма воды бесплантно в хорошем качестве Описание: Действие разворачивается в 1963 году. Главная героиня - немая уборщица в научной лаборатории. В стенах секретного учреждения идёт ... 10 10 2
Торрент: Зарегистрирован [2018-09-09 13:52] · скачан: 24 раз
Статус: √ проверено
Размер: 55.35 GB
Как cкачать? Как скачать Форма воды через торрент | UTorrent

% Раздел Тема Автор DL S | L
Ultra HD (UHD: 2K, 4K, 8K) [ 57.34 GB ] Форма воды / The Shape of Water | Лицензия | 2160p bober100 Скачать
1 | 0
Фильмы [HD 720p, 1080p] (Хороший звук DUB, MVO) [ 13.33 GB ] Форма воды / The Shape of Water | Лицензия | 1080p bober100 Скачать
1 | 0
Фильмы 2017 [DVDrip, WEB-DLRip, HDrip] (DUB, MVO) [ 2.78 GB ] Форма воды / The Shape of Water | Лицензия | BDRip-AVC Enigma2010 Скачать
1 | 0
Фильмы (Blu-ray, BD-Remux, HDDVD) [ 35.07 GB ] Форма воды / The Shape of Water | Лицензия | BD Remux 1080p bober100 Скачать
1 | 0
Ultra HD (UHD: 2K, 4K, 8K) [ 17.96 GB ] Форма воды / The Shape of Water | Лицензия | 2160p bober100 Скачать
1 | 1
Фильмы 2017 [DVDrip, WEB-DLRip, HDrip] (DUB, MVO) [ 2.19 GB ] Форма воды / The Shape of Water | Лицензия | BDRip Twi7ter Скачать
1 | 0
Ultra HD (UHD: 2K, 4K, 8K) [ 51.56 GB ] Форма воды / The Shape of Water | DUB | 2160p sheker187 Скачать
1 | 0

28-11-2019 20:33  


Отключить вcю реклaмy на сайте, в т.ч. и в плеере онлайн просмотра!

    Дорогой пользователь! Огромная просьба, поблагодарите релизера, оцените раздачу и оставьте свои комментарий, если Вы скачали Форма воды через торрент бесплатно!!
    Комментировать посты могут только пользователи прошедшие не сложную регистрацию
    Показать сообщения:    


    Форма воды через торрент
    Скачать бесплатно Форма воды
    Форма воды скачать торрент
    Форма воды смотреть онлайн
    Cкачать фильм Форма воды бесплатно
    Форма воды скачать торрент в хорошем качестве
    Форма воды смотреть онлайн бесплатно в хорошем качестве
    Вы не можете начинать темы
    Вы не можете отвечать на сообщения
    Вы не можете редактировать свои сообщения
    Вы не можете удалять свои сообщения
    Вы не можете голосовать в опросах
    Вы не можете прикреплять файлы к сообщениям
    Вы можете скачивать файлы
    Форма воды / The Shape of Water [2017, фэнтези, драма, UHD BDRemux 2160p] Дубляж [Лицензия] + AVO [С. Визгунов] смотреть онлайн, скачать торрент picoco.icu