Достать ножи: Стеклянная луковица

MVO

Добыча

Дубляж

Уэнсдэй

1 сезон

Тор

Дубляж

13 клиническая

1 сезон

Жестокая ночь

MVO

Одни из нас

1 сезон

Deluxe

pack

Рекомендуем

30

Пиратка

ВАЖНО

ВАЖНО

Ghostwire

Пиратка

jed

RePack

nioh2

RePack

RDR2

RePack

NEED FOR SPEED™ PAYBACK

RePack

скачать торрент

Кинопоиск HD

Острые козырьки 6 сезон

6 сезон

FAR CRY 6

RePack

скачать торрент

Лицензия

скачать торрент

MVO

1

1 сезон

скачать торрент

1 сезон

скачать торрент

Лицензия

  

Кристина / Christine (Джон Карпентер) [1983, Ужасы, мистика, драма, экранизация, UHD BDRip 2160p] 2xMVO + 2xDVO + 3xAVO

Кристина через торрент piratbit.org

Размер: 20.62 GB | Добавлен: 4 года 4 мес. назад | Торрент скачан:4 раза
Смотреть онлайн | Скачать | Поддержите нас   

12-09-2018 14:10 Кристина Скачать торрент  

Кристина / Christine

Год выпуска: 1983
Страна: США
Жанр: Ужасы, мистика, драма, экранизация
Продолжительность: 01:50:00
Перевод: Профессиональный многоголосый, профессиональный двухголосый, авторский
Субтитры: Русские (Full, Forced), английские (SDH, Full) французские, немецкие, испанские
Режиссер: Джон Карпентер
В ролях:

Кит Гордон (Arnie Cunningham), Джон Стокуэлл (Dennis Guilder), Александра Пол (Leigh Cabot), Роберт Проски (Will Darnell), Гарри Дин Стэнтон (Detective Rudolph Junkins), Кристин Белфорд (Regina Cunningham), Робертс Блоссом (George LeBay), Уильям Острандер (Buddy Repperton), Дэвид Спилберг (Mr. Casey), Мальколм Дэнар (Moochie), Стивен Тэш (Rich), Стюарт Чарно (Don Vandenberg)
Описание:
Ее зовут Кристина. Ее классические формы вызывают восхищение. Она соблазняет 17-летнего Арни Каннингэма и делает его своим слугой. У нее нет и не может быть соперниц, ибо она их убивает. Она требует беспрекословного подчинения.
Рейтинг:

MPAA: R - Лицам до 17 лет обязательно присутствие взрослого
Качество: UHD BDRip 2160p
Формат: MKV
Видео: HEVC, HDR, 24.5 Mбит/с, 3840x1608, 23.976 кадр/с
Аудио #1: 48 kHz,(AC3, 2 ch, 256 Кбит/с) [Многоголосый закадровый]
Аудио #2: 48 kHz,(AC3, 2 ch, 192 Кбит/с) [Двухголосый закадровый, Киномания]
Аудио #3: 48 kHz,(AC3, 2 ch, 192 Кбит/с) [Двухголосый закадровый, НТВ+]
Аудио #4: 48 kHz,(AC3, 2 ch, 192 Кбит/с) [Многоголосый закадровый]
Аудио #5: 48 kHz,(AC3, 2 ch, 192 Кбит/с) [Одноголосый закадровый, В.Штейн]
Аудио #6: 48 kHz,(AC3, 2 ch, 192 Кбит/с) [Одноголосый закадровый, С.Визгунов]
Аудио #7: 48 kHz,(AC3, 2 ch, 192 Кбит/с) [Одноголосый закадровый, Л.Володарский]
Аудио #8: 48 kHz,(AC3, 2 ch, 192 Кбит/с) [Комментарии - Киномания]
Аудио #9: 48 kHz,(AC3, 6 ch, 640 Кбит/с) Оригинал
Навигация по главам: Есть
Complete name : E:\Movies\test\Christine.1983.2160p.UHD.BluRay.x265-SpaceHD13.mkv
Format : Matroska
Format version : Version 4 / Version 2
File size : 20.6 GiB
Duration : 1 h 50 min
Overall bit rate : 26.8 Mb/s
Movie name : Christine.1983.2160p.UHD.BluRay.x265-SpaceHD13
Encoded date : UTC 2018-09-12 12:15:36
Writing application : mkvmerge v25.0.0 ('Prog Noir') 64-bit
Writing library : libebml v1.3.6 + libmatroska v1.4.9

Video
ID : 1
Format : HEVC
Format/Info : High Efficiency Video Coding
Commercial name : HDR10
Format profile : Main 10@L5.1@High
Codec ID : V_MPEGH/ISO/HEVC
Duration : 1 h 50 min
Bit rate : 24.5 Mb/s
Width : 3 840 pixels
Height : 1 608 pixels
Display aspect ratio : 2.40:1
Frame rate mode : Constant
Frame rate : 23.976 (24000/1001) FPS
Color space : YUV
Chroma subsampling : 4:2:0 (Type 2)
Bit depth : 10 bits
Bits/(Pixel*Frame) : 0.166
Stream size : 18.8 GiB (91%)
Title : Christine.1983.2160p.UHD.BluRay.x265-SpaceHD13
Writing library : x265 2.8+10-703eade86b53:[Windows][MSVC 1914][64 bit] 10bit
Encoding settings : cpuid=1111039 / frame-threads=4 / numa-pools=20 / wpp / no-pmode / no-pme / no-psnr / no-ssim / log-level=2 / input-csp=1 / input-res=3840x1608 / interlace=0 / total-frames=158256 / level-idc=51 / high-tier=1 / uhd-bd=0 / ref=4 / no-allow-non-conformance / repeat-headers / annexb / aud / hrd / info / hash=0 / no-temporal-layers / no-open-gop / min-keyint=1 / keyint=24 / gop-lookahead=0 / bframes=4 / b-adapt=2 / b-pyramid / bframe-bias=0 / rc-lookahead=25 / lookahead-slices=4 / scenecut=40 / radl=0 / no-intra-refresh / ctu=64 / min-cu-size=8 / rect / no-amp / max-tu-size=32 / tu-inter-depth=1 / tu-intra-depth=1 / limit-tu=0 / rdoq-level=2 / dynamic-rd=0.00 / no-ssim-rd / signhide / no-tskip / nr-intra=0 / nr-inter=0 / no-constrained-intra / no-strong-intra-smoothing / max-merge=3 / limit-refs=3 / limit-modes / me=3 / subme=3 / merange=57 / temporal-mvp / weightp / no-weightb / no-analyze-src-pics / deblock=-3:-3 / no-sao / no-sao-non-deblock / rd=4 / no-early-skip / rskip / no-fast-intra / no-tskip-fast / no-cu-lossless / no-b-intra / no-splitrd-skip / rdpenalty=0 / psy-rd=2.00 / psy-rdoq=1.00 / no-rd-refine / no-lossless / cbqpoffs=0 / crqpoffs=0 / rc=crf / crf=18.0 / qcomp=0.60 / qpstep=4 / stats-write=0 / stats-read=0 / vbv-maxrate=160000 / vbv-bufsize=160000 / vbv-init=0.9 / crf-max=0.0 / crf-min=0.0 / ipratio=1.40 / pbratio=1.30 / aq-mode=1 / aq-strength=1.00 / cutree / zone-count=0 / no-strict-cbr / qg-size=32 / no-rc-grain / qpmax=69 / qpmin=0 / no-const-vbv / sar=1 / overscan=0 / videoformat=5 / range=0 / colorprim=9 / transfer=16 / colormatrix=9 / chromaloc=1 / chromaloc-top=2 / chromaloc-bottom=2 / display-window=0 / master-display=G(13250,34500)B(7500,3000)R(34000,16000)WP(15635,16450)L(40000000,50) / max-cll=1951,701 / min-luma=0 / max-luma=1023 / log2-max-poc-lsb=8 / vui-timing-info / vui-hrd-info / slices=1 / no-opt-qp-pps / no-opt-ref-list-length-pps / no-multi-pass-opt-rps / scenecut-bias=0.05 / no-opt-cu-delta-qp / no-aq-motion / hdr / hdr-opt / no-dhdr10-opt / no-idr-recovery-sei / analysis-reuse-level=5 / scale-factor=0 / refine-intra=0 / refine-inter=0 / refine-mv=0 / no-limit-sao / ctu-info=0 / no-lowpass-dct / refine-mv-type=0 / copy-pic=1 / max-ausize-factor=1.0 / no-dynamic-refine / no-single-sei
Default : Yes
Forced : No
Color range : Limited
Color primaries : BT.2020
Transfer characteristics : PQ
Matrix coefficients : BT.2020 non-constant
Mastering display color pri : Display P3
Mastering display luminance : min: 0.0050 cd/m2, max: 4000 cd/m2
Maximum Content Light Level : 1951 cd/m2
Maximum Frame-Average Light : 701 cd/m2

Audio #1
ID : 2
Format : AC-3
Format/Info : Audio Coding 3
Codec ID : A_AC3
Duration : 1 h 50 min
Bit rate mode : Constant
Bit rate : 256 kb/s
Channel(s) : 2 channels
Channel positions : Front: L R
Sampling rate : 48.0 kHz
Frame rate : 31.250 FPS (1536 SPF)
Bit depth : 16 bits
Compression mode : Lossy
Stream size : 201 MiB (1%)
Title : Christine.1983.2160p.UHD.BluRay.x265-SpaceHD13.[Blu-ray 4k]
Language : Russian
Service kind : Complete Main
Default : Yes
Forced : No

Audio #2
ID : 3
Format : AC-3
Format/Info : Audio Coding 3
Codec ID : A_AC3
Duration : 1 h 50 min
Bit rate mode : Constant
Bit rate : 192 kb/s
Channel(s) : 2 channels
Channel positions : Front: L R
Sampling rate : 48.0 kHz
Frame rate : 31.250 FPS (1536 SPF)
Bit depth : 16 bits
Compression mode : Lossy
Delay relative to video : 1 s 0 ms
Stream size : 151 MiB (1%)
Title : Christine.1983.2160p.UHD.BluRay.x265-SpaceHD13.[Киномания]
Language : Russian
Service kind : Complete Main
Default : No
Forced : No

Audio #3
ID : 4
Format : AC-3
Format/Info : Audio Coding 3
Codec ID : A_AC3
Duration : 1 h 49 min
Bit rate mode : Constant
Bit rate : 192 kb/s
Channel(s) : 2 channels
Channel positions : Front: L R
Sampling rate : 48.0 kHz
Frame rate : 31.250 FPS (1536 SPF)
Bit depth : 16 bits
Compression mode : Lossy
Delay relative to video : 1 s 0 ms
Stream size : 151 MiB (1%)
Title : Christine.1983.2160p.UHD.BluRay.x265-SpaceHD13.[НТВ+]
Language : Russian
Service kind : Complete Main
Default : No
Forced : No

Audio #4
ID : 5
Format : AC-3
Format/Info : Audio Coding 3
Codec ID : A_AC3
Duration : 1 h 50 min
Bit rate mode : Constant
Bit rate : 192 kb/s
Channel(s) : 2 channels
Channel positions : Front: L R
Sampling rate : 48.0 kHz
Frame rate : 31.250 FPS (1536 SPF)
Bit depth : 16 bits
Compression mode : Lossy
Delay relative to video : 1 s 0 ms
Stream size : 151 MiB (1%)
Title : Christine.1983.2160p.UHD.BluRay.x265-SpaceHD13.[Многоголосый закадровый]
Language : Russian
Service kind : Complete Main
Default : No
Forced : No

Audio #5
ID : 6
Format : AC-3
Format/Info : Audio Coding 3
Codec ID : A_AC3
Duration : 1 h 49 min
Bit rate mode : Constant
Bit rate : 192 kb/s
Channel(s) : 2 channels
Channel positions : Front: L R
Sampling rate : 48.0 kHz
Frame rate : 31.250 FPS (1536 SPF)
Bit depth : 16 bits
Compression mode : Lossy
Delay relative to video : 1 s 0 ms
Stream size : 151 MiB (1%)
Title : Christine.1983.2160p.UHD.BluRay.x265-SpaceHD13.[ В.Штейн]
Language : Russian
Service kind : Complete Main
Default : No
Forced : No

Audio #6
ID : 7
Format : AC-3
Format/Info : Audio Coding 3
Codec ID : A_AC3
Duration : 1 h 50 min
Bit rate mode : Constant
Bit rate : 192 kb/s
Channel(s) : 2 channels
Channel positions : Front: L R
Sampling rate : 48.0 kHz
Frame rate : 31.250 FPS (1536 SPF)
Bit depth : 16 bits
Compression mode : Lossy
Delay relative to video : 1 s 0 ms
Stream size : 151 MiB (1%)
Title : Christine.1983.2160p.UHD.BluRay.x265-SpaceHD13.[С.Визгунов]
Language : Russian
Service kind : Complete Main
Default : No
Forced : No

Audio #7
ID : 8
Format : AC-3
Format/Info : Audio Coding 3
Codec ID : A_AC3
Duration : 1 h 50 min
Bit rate mode : Constant
Bit rate : 192 kb/s
Channel(s) : 2 channels
Channel positions : Front: L R
Sampling rate : 48.0 kHz
Frame rate : 31.250 FPS (1536 SPF)
Bit depth : 16 bits
Compression mode : Lossy
Delay relative to video : 1 s 0 ms
Stream size : 151 MiB (1%)
Title : Christine.1983.2160p.UHD.BluRay.x265-SpaceHD13.[Л.Володарский]
Language : Russian
Service kind : Complete Main
Default : No
Forced : No

Audio #8
ID : 9
Format : AC-3
Format/Info : Audio Coding 3
Codec ID : A_AC3
Duration : 1 h 50 min
Bit rate mode : Constant
Bit rate : 192 kb/s
Channel(s) : 2 channels
Channel positions : Front: L R
Sampling rate : 48.0 kHz
Frame rate : 31.250 FPS (1536 SPF)
Bit depth : 16 bits
Compression mode : Lossy
Delay relative to video : 1 s 0 ms
Stream size : 151 MiB (1%)
Title : Christine.1983.2160p.UHD.BluRay.x265-SpaceHD13.[Комментарии - Киномания]
Language : Russian
Service kind : Complete Main
Default : No
Forced : No

Audio #9
ID : 10
Format : AC-3
Format/Info : Audio Coding 3
Codec ID : A_AC3
Duration : 1 h 50 min
Bit rate mode : Constant
Bit rate : 640 kb/s
Channel(s) : 6 channels
Channel positions : Front: L C R, Side: L R, LFE
Sampling rate : 48.0 kHz
Frame rate : 31.250 FPS (1536 SPF)
Bit depth : 16 bits
Compression mode : Lossy
Stream size : 504 MiB (2%)
Title : Christine.1983.2160p.UHD.BluRay.x265-SpaceHD13
Language : English
Service kind : Complete Main
Default : No
Forced : No

Text #1
ID : 11
Format : PGS
Muxing mode : zlib
Codec ID : S_HDMV/PGS
Codec ID/Info : Picture based subtitle format used on BDs/HD-DVDs
Duration : 1 h 49 min
Bit rate : 26.7 kb/s
Count of elements : 2299
Stream size : 20.8 MiB (0%)
Title : English-SUP
Language : English
Default : Yes
Forced : No

Text #2
ID : 12
Format : PGS
Muxing mode : zlib
Codec ID : S_HDMV/PGS
Codec ID/Info : Picture based subtitle format used on BDs/HD-DVDs
Duration : 1 h 41 min
Bit rate : 21.2 kb/s
Count of elements : 1655
Stream size : 15.3 MiB (0%)
Title : English-SUP
Language : English
Default : No
Forced : No

Text #3
ID : 13
Format : PGS
Muxing mode : zlib
Codec ID : S_HDMV/PGS
Codec ID/Info : Picture based subtitle format used on BDs/HD-DVDs
Duration : 1 h 49 min
Bit rate : 26.7 kb/s
Count of elements : 2299
Stream size : 20.8 MiB (0%)
Title : English-SUP
Language : English
Default : No
Forced : No

Text #4
ID : 14
Format : PGS
Muxing mode : zlib
Codec ID : S_HDMV/PGS
Codec ID/Info : Picture based subtitle format used on BDs/HD-DVDs
Duration : 1 h 41 min
Bit rate : 21.2 kb/s
Count of elements : 1661
Stream size : 15.3 MiB (0%)
Title : English-SUP
Language : English
Default : No
Forced : No

Text #5
ID : 15
Format : PGS
Muxing mode : zlib
Codec ID : S_HDMV/PGS
Codec ID/Info : Picture based subtitle format used on BDs/HD-DVDs
Duration : 1 h 45 min
Bit rate : 21.3 kb/s
Count of elements : 1871
Stream size : 16.0 MiB (0%)
Title : French-SUP
Language : French
Default : No
Forced : No

Text #6
ID : 16
Format : PGS
Muxing mode : zlib
Codec ID : S_HDMV/PGS
Codec ID/Info : Picture based subtitle format used on BDs/HD-DVDs
Duration : 1 h 45 min
Bit rate : 22.6 kb/s
Count of elements : 1715
Stream size : 16.9 MiB (0%)
Title : German-SUP
Language : German
Default : No
Forced : No

Text #7
ID : 17
Format : PGS
Muxing mode : zlib
Codec ID : S_HDMV/PGS
Codec ID/Info : Picture based subtitle format used on BDs/HD-DVDs
Duration : 1 h 45 min
Bit rate : 19.6 kb/s
Count of elements : 1697
Stream size : 14.8 MiB (0%)
Title : Spanish-SUP
Language : Spanish
Default : No
Forced : No

Text #8
ID : 18
Format : PGS
Muxing mode : zlib
Codec ID : S_HDMV/PGS
Codec ID/Info : Picture based subtitle format used on BDs/HD-DVDs
Duration : 1 h 13 min
Bit rate : 166 b/s
Count of elements : 8
Stream size : 90.0 KiB (0%)
Title : Russian-Forced
Language : Russian
Default : No
Forced : No

Text #9
ID : 19
Format : PGS
Muxing mode : zlib
Codec ID : S_HDMV/PGS
Codec ID/Info : Picture based subtitle format used on BDs/HD-DVDs
Duration : 1 h 42 min
Bit rate : 34.2 kb/s
Count of elements : 1680
Stream size : 25.0 MiB (0%)
Title : Russian-Full
Language : Russian
Default : No
Forced : No

Menu
00:00:00.000 : :Глава 01
00:07:54.807 : :Глава 02
00:15:00.731 : :Глава 03
00:20:12.086 : :Глава 04
00:25:41.457 : :Глава 05
00:34:02.163 : :Глава 06
00:41:55.929 : :Глава 07
00:49:12.199 : :Глава 08
00:55:11.391 : :Глава 09
01:01:33.106 : :Глава 10
01:05:57.786 : :Глава 11
01:12:49.407 : :Глава 12
01:17:59.341 : :Глава 13
01:28:31.264 : :Глава 14
01:36:52.221 : :Глава 15
01:45:19.229 : :Глава 16



Скачать Кристина через торрент https://a.radikal.ru/a35/1809/33/c4a3c0b7c6ea.png Скачать, смотреть онлайн Кристина бесплантно в хорошем качестве Описание: Ее зовут Кристина. Ее классические формы вызывают восхищение. Она соблазняет 17-летнего Арни Каннингэма и делает его своим ... 10 10 7
Info! Золотая раздача, скачанное не засчитывается.
Торрент: Зарегистрирован [2018-09-12 14:10] · скачан: 4 раз
Статус: √ проверено
Размер: 20.62 GB
Как cкачать? Как скачать Кристина через торрент | UTorrent

28-11-2019 20:33  


Отключить вcю реклaмy на сайте, в т.ч. и в плеере онлайн просмотра!

16-12-2018 18:40 Кристина Скачать торрент  

докачать дайте



24-03-2019 06:14 Кристина Скачать торрент  

Дайте докачать, пожалуйста



    Дорогой пользователь! Огромная просьба, поблагодарите релизера, оцените раздачу и оставьте свои комментарий, если Вы скачали Кристина через торрент бесплатно!!
    Комментировать посты могут только пользователи прошедшие не сложную регистрацию
    Показать сообщения:    


    Кристина через торрент
    Скачать бесплатно Кристина
    Кристина скачать торрент
    Кристина смотреть онлайн
    Cкачать фильм Кристина бесплатно
    Кристина скачать торрент в хорошем качестве
    Кристина смотреть онлайн бесплатно в хорошем качестве
    Вы не можете начинать темы
    Вы не можете отвечать на сообщения
    Вы не можете редактировать свои сообщения
    Вы не можете удалять свои сообщения
    Вы не можете голосовать в опросах
    Вы не можете прикреплять файлы к сообщениям
    Вы можете скачивать файлы
    Кристина / Christine [1983, Ужасы, мистика, драма, экранизация, UHD BDRip 2160p] 2xMVO + 2xDVO + 3xAVO смотреть онлайн, скачать торрент picoco.icu