Достать ножи: Стеклянная луковица

MVO

Добыча

Дубляж

Уэнсдэй

1 сезон

Тор

Дубляж

13 клиническая

1 сезон

Жестокая ночь

MVO

Одни из нас

1 сезон

Deluxe

pack

Рекомендуем

30

Пиратка

ВАЖНО

ВАЖНО

Ghostwire

Пиратка

jed

RePack

nioh2

RePack

RDR2

RePack

NEED FOR SPEED™ PAYBACK

RePack

скачать торрент

Кинопоиск HD

Острые козырьки 6 сезон

6 сезон

FAR CRY 6

RePack

скачать торрент

Лицензия

скачать торрент

MVO

1

1 сезон

скачать торрент

1 сезон

скачать торрент

Лицензия

  

Хан Соло: Звёздные войны. Истории / Solo: A Star Wars Story (Рон Ховард) [2018, фантастика, фэнтези, боевик, UHD BDRemux 2160p] Дубляж [Лицензия]

Хан Соло: Звёздные войны. Истории через торрент piratbit.org

Размер: 46.56 GB | Добавлен: 4 года 4 мес. назад | Торрент скачан:262 раза
Смотреть онлайн | Скачать | Поддержите нас   

16-09-2018 13:44 Хан Соло: Звёздные войны. Истории Скачать торрент  

Хан Соло: Звёздные войны. Истории / Solo: A Star Wars Story«Never tell him the odds»
Год выпуска: 2018
Страна: США
Жанр: фантастика, фэнтези, боевик, приключения
Продолжительность: 02:14:46
Перевод: Дублированный | Лицензия
Субтитры: Русские (Forced, full, SDH), английские (Full, SDH, SDH Colored)
Режиссер: Рон Ховард
В ролях:

Олден Эренрайк (Han Solo), Йонас Суотамо (Chewbacca), Вуди Харрельсон (Beckett), Эмилия Кларк (Qi'ra), Дональд Гловер (Lando Calrissian), Тэнди Ньютон (Val), Фиби Уоллер-Бридж (L3-37), Пол Беттани (Dryden Vos), Джон Фавро (Rio Durant, озвучка), Эрин Келлиман (Enfys Nest), Линда Хант (Lady Proxima, озвучка), Йен Кенни (Rebolt)
Описание:
Фильм расскажет о похождениях юного космического сорвиголовы Хана Соло и его верного напарника Чубакки и о том, как они стали самыми быстрыми пилотами и самыми хитрыми контрабандистами далёкой Галактики.
Рейтинг:

MPAA: PG-13 - Детям до 13 лет просмотр не желателен
Качество: UHD BDRemux 2160p
Формат: MKV
Видео: MPEG-H HEVC HDR Video, 3840x2160, 43.1 Mbit/s, 23.976 fps
Аудио #01: 48 kHz, AC3, 5.1, 640 Kbps | Лицензия | RUS |
Аудио #02: 48 kHz, TrueHD Dolby Atmos, 7.1, 4981 Kbps | Оригинал | ENG |
Аудио #03: 48 kHz, AC3, 5.1, 640 Kbps | Оригинал | ENG |
Навигация по главам: есть
General
Unique ID : 143254346729307023292533210802677668239 (0x6BC5C89A34200009D3B204F78D70D98F)
Complete name : F:Video1Solo.A.Star.Wars.Story.2018.BDRemux.2160p.TeamHD.mkv
Format : Matroska
Format version : Version 4 / Version 2
File size : 46.6 GiB
Duration : 2 h 14 min
Overall bit rate mode : Variable
Overall bit rate : 49.5 Mb/s
Movie name : Solo: A Star Wars Story 4K (2018) TeamHD
Encoded date : UTC 2018-09-16 12:48:42
Writing application : mkvmerge v23.0.0 ('The Bride Said No') 64-bit
Writing library : libebml v1.3.6 + libmatroska v1.4.9

Video
ID : 1
Format : HEVC
Format/Info : High Efficiency Video Coding
Commercial name : HDR10
Format profile : Main 10@L5.1@High
Codec ID : V_MPEGH/ISO/HEVC
Duration : 2 h 14 min
Bit rate : 43.1 Mb/s
Width : 3 840 pixels
Height : 2 160 pixels
Display aspect ratio : 16:9
Frame rate mode : Constant
Frame rate : 23.976 (24000/1001) FPS
Color space : YUV
Chroma subsampling : 4:2:0 (Type 2)
Bit depth : 10 bits
Bits/(Pixel*Frame) : 0.217
Stream size : 40.6 GiB (87%)
Writing library : ATEME Titan File 3.8.16 (4.8.16.0)
Language : English
Default : Yes
Forced : No
Color range : Limited
Color primaries : BT.2020
Transfer characteristics : PQ
Matrix coefficients : BT.2020 non-constant
Mastering display color pri : Display P3
Mastering display luminance : min: 0.0001 cd/m2, max: 1000 cd/m2

Audio #1
ID : 2
Format : AC-3
Format/Info : Audio Coding 3
Commercial name : Dolby Digital
Codec ID : A_AC3
Duration : 2 h 14 min
Bit rate mode : Constant
Bit rate : 640 kb/s
Channel(s) : 6 channels
Channel layout : L R C LFE Ls Rs
Sampling rate : 48.0 kHz
Frame rate : 31.250 FPS (1536 SPF)
Bit depth : 16 bits
Compression mode : Lossy
Stream size : 617 MiB (1%)
Title : Дубляж [License]
Language : Russian
Service kind : Complete Main
Default : Yes
Forced : Yes

Audio #2
ID : 3
Format : MLP FBA 16-ch
Format/Info : Meridian Lossless Packing FBA with 16-channel presentation
Commercial name : TrueHD with Dolby Atmos
Codec ID : A_TRUEHD
Duration : 2 h 14 min
Bit rate mode : Variable
Bit rate : 4 981 kb/s
Maximum bit rate : 4 647 kb/s
Channel(s) : 8 channels
Channel layout : L R C LFE Ls Rs Lb Rb
Sampling rate : 48.0 kHz
Frame rate : 1 200.000 FPS (40 SPF)
Compression mode : Lossless
Stream size : 4.69 GiB (10%)
Title : Original
Language : English
Default : No
Forced : No
Number of dynamic objects : 13
Bed channel count : 1 channel
Bed channel configuration : LFE

Audio #3
ID : 4
Format : AC-3
Format/Info : Audio Coding 3
Commercial name : Dolby Digital
Codec ID : A_AC3
Duration : 2 h 14 min
Bit rate mode : Constant
Bit rate : 640 kb/s
Channel(s) : 6 channels
Channel layout : L R C LFE Ls Rs
Sampling rate : 48.0 kHz
Frame rate : 31.250 FPS (1536 SPF)
Bit depth : 16 bits
Compression mode : Lossy
Stream size : 617 MiB (1%)
Language : English
Service kind : Complete Main
Default : No
Forced : No

Text #1
ID : 5
Format : UTF-8
Codec ID : S_TEXT/UTF8
Codec ID/Info : UTF-8 Plain Text
Duration : 1 h 17 min
Bit rate : 1 b/s
Count of elements : 16
Stream size : 585 Bytes (0%)
Title : Forced
Language : Russian
Default : Yes
Forced : Yes

Text #2
ID : 6
Format : UTF-8
Codec ID : S_TEXT/UTF8
Codec ID/Info : UTF-8 Plain Text
Duration : 2 h 7 min
Bit rate : 83 b/s
Count of elements : 1841
Stream size : 78.2 KiB (0%)
Title : Full
Language : Russian
Default : No
Forced : No

Text #3
ID : 7
Format : UTF-8
Codec ID : S_TEXT/UTF8
Codec ID/Info : UTF-8 Plain Text
Duration : 2 h 5 min
Bit rate : 96 b/s
Count of elements : 2258
Stream size : 89.4 KiB (0%)
Title : SDH
Language : Russian
Default : No
Forced : No

Text #4
ID : 8
Format : UTF-8
Codec ID : S_TEXT/UTF8
Codec ID/Info : UTF-8 Plain Text
Duration : 2 h 5 min
Bit rate : 56 b/s
Count of elements : 1958
Stream size : 51.9 KiB (0%)
Title : Full
Language : English
Default : No
Forced : No

Text #5
ID : 9
Format : UTF-8
Codec ID : S_TEXT/UTF8
Codec ID/Info : UTF-8 Plain Text
Duration : 2 h 5 min
Bit rate : 63 b/s
Count of elements : 2232
Stream size : 58.5 KiB (0%)
Title : SDH
Language : English
Default : No
Forced : No

Text #6
ID : 10
Format : UTF-8
Codec ID : S_TEXT/UTF8
Codec ID/Info : UTF-8 Plain Text
Duration : 2 h 5 min
Bit rate : 85 b/s
Count of elements : 2232
Stream size : 78.8 KiB (0%)
Title : SDH Colored
Language : English
Default : No
Forced : No

Menu
00:00:00.000 : en:00:00:00.000
00:00:53.845 : en:00:00:53.845
00:02:10.213 : en:00:02:10.213
00:03:53.150 : en:00:03:53.150
00:06:00.485 : en:00:06:00.485
00:09:27.567 : en:00:09:27.567
00:13:16.045 : en:00:13:16.045
00:14:14.020 : en:00:14:14.020
00:16:12.263 : en:00:16:12.263
00:19:45.101 : en:00:19:45.101
00:22:43.821 : en:00:22:43.821
00:24:37.267 : en:00:24:37.267
00:27:00.035 : en:00:27:00.035
00:30:02.926 : en:00:30:02.926
00:32:54.681 : en:00:32:54.681
00:39:09.764 : en:00:39:09.764
00:41:59.225 : en:00:41:59.225
00:43:20.181 : en:00:43:20.181
00:44:32.128 : en:00:44:32.128
00:48:03.756 : en:00:48:03.756
00:51:58.324 : en:00:51:58.324
00:53:17.528 : en:00:53:17.528
00:57:23.523 : en:00:57:23.523
01:00:16.780 : en:01:00:16.780
01:02:40.882 : en:01:02:40.882
01:04:51.262 : en:01:04:51.262
01:05:29.509 : en:01:05:29.509
01:07:12.028 : en:01:07:12.028
01:08:05.915 : en:01:08:05.915
01:10:00.113 : en:01:10:00.113
01:12:44.193 : en:01:12:44.193
01:14:40.851 : en:01:14:40.851
01:18:30.873 : en:01:18:30.873
01:23:15.741 : en:01:23:15.741
01:26:32.646 : en:01:26:32.646
01:30:33.136 : en:01:30:33.136
01:35:19.672 : en:01:35:19.672
01:37:04.861 : en:01:37:04.861
01:38:52.802 : en:01:38:52.802
01:41:18.531 : en:01:41:18.531
01:43:02.676 : en:01:43:02.676
01:45:27.821 : en:01:45:27.821
01:46:32.177 : en:01:46:32.177
01:49:45.996 : en:01:49:45.996
01:53:33.890 : en:01:53:33.890
01:57:13.902 : en:01:57:13.902
01:58:55.128 : en:01:58:55.128
02:01:34.829 : en:02:01:34.829
02:03:20.893 : en:02:03:20.893
02:06:09.353 : en:02:06:09.353



Скачать Хан Соло: Звёздные войны. Истории через торрент https://a.radikal.ru/a21/1809/95/b7f44749e915.png Скачать, смотреть онлайн Хан Соло: Звёздные войны. Истории бесплантно в хорошем качестве Описание: Фильм расскажет о похождениях юного космического сорвиголовы Хана Соло и его верного напарника Чубакки и о том, как они стали ... 10 10 8
Info! Золотая раздача, скачанное не засчитывается.
Торрент: Зарегистрирован [2018-09-16 13:44] · скачан: 262 раз
Статус: √ проверено
Размер: 46.56 GB
Как cкачать? Как скачать Хан Соло: Звёздные войны. Истории через торрент | UTorrent

% Раздел Тема Автор DL S | L
3D Фильмы [ 8.84 GB ] Хан Соло: Звёздные войны. Истории в 3D / Solo: A Star Wars Story in 3D | Дубляж | 1080p, Дубляж slaventi-69 Скачать
1 | 2
Фильмы [HD 720p, 1080p] (Хороший звук DUB, MVO) [ 5.75 GB ] Хан Соло: Звёздные Войны. Истории / Solo: A Star Wars Story | Лицензия | 720p bober100 Скачать
1 | 0
Фильмы с авторской озвучкой [ 2.06 GB ] Хан Соло: Звёздные Войны. Истории / Solo: A Star Wars Story | AVO | BDRip killermax2013 Скачать
1 | 0
Фильмы (Blu-ray, BD-Remux, HDDVD) [ 39.08 GB ] Хан Соло: Звёздные Войны. Истории / Solo: A Star Wars Story | Лицензия | 1080p bober100 Скачать
1 | 0
Фильмы (Blu-ray, BD-Remux, HDDVD) [ 34.84 GB ] Хан Соло: Звёздные войны. Истории / Solo: A Star Wars Story | Лицензия | 1080p sheker187 Скачать
1 | 0
Фильмы [HD 720p, 1080p] (Хороший звук DUB, MVO) [ 7.29 GB ] Хан Соло: Звёздные Войны. Истории / Solo: A Star Wars Story | Лицензия | 1080p, (10bit bober100 Скачать
2 | 0
Фильмы 2018 [DVDrip, WEB-DLRip, HDrip] (DUB, MVO) [ 1.46 GB ] Хан Соло: Звёздные войны. Истории / Solo: A Star Wars Story | Лицензия | BDRip Twi7ter Скачать
2 | 0

28-11-2019 20:33  


Отключить вcю реклaмy на сайте, в т.ч. и в плеере онлайн просмотра!

    Дорогой пользователь! Огромная просьба, поблагодарите релизера, оцените раздачу и оставьте свои комментарий, если Вы скачали Хан Соло: Звёздные войны. Истории через торрент бесплатно!!
    Комментировать посты могут только пользователи прошедшие не сложную регистрацию
    Показать сообщения:    


    Хан Соло: Звёздные войны. Истории через торрент
    Скачать бесплатно Хан Соло: Звёздные войны. Истории
    Хан Соло: Звёздные войны. Истории скачать торрент
    Хан Соло: Звёздные войны. Истории смотреть онлайн
    Cкачать фильм Хан Соло: Звёздные войны. Истории бесплатно
    Хан Соло: Звёздные войны. Истории скачать торрент в хорошем качестве
    Хан Соло: Звёздные войны. Истории смотреть онлайн бесплатно в хорошем качестве
    Вы не можете начинать темы
    Вы не можете отвечать на сообщения
    Вы не можете редактировать свои сообщения
    Вы не можете удалять свои сообщения
    Вы не можете голосовать в опросах
    Вы не можете прикреплять файлы к сообщениям
    Вы можете скачивать файлы
    Хан Соло: Звёздные войны. Истории / Solo: A Star Wars Story [2018, фантастика, фэнтези, боевик, UHD BDRemux 2160p] Дубляж [Лицензия] смотреть онлайн, скачать торрент picoco.icu