Достать ножи: Стеклянная луковица

MVO

Добыча

Дубляж

Уэнсдэй

1 сезон

Тор

Дубляж

13 клиническая

1 сезон

Жестокая ночь

MVO

Одни из нас

1 сезон

Deluxe

pack

Рекомендуем

30

Пиратка

ВАЖНО

ВАЖНО

Ghostwire

Пиратка

jed

RePack

nioh2

RePack

RDR2

RePack

NEED FOR SPEED™ PAYBACK

RePack

скачать торрент

Кинопоиск HD

Острые козырьки 6 сезон

6 сезон

FAR CRY 6

RePack

скачать торрент

Лицензия

скачать торрент

MVO

1

1 сезон

скачать торрент

1 сезон

скачать торрент

Лицензия

  

Ван Хельсинг / Van Helsing (Стивен Соммерс) [2004, фэнтези, боевик, триллер, приключения, UHD BDRemux 2160p] MVO+2xDVO+3xAVO+VO+Дубляж

Ван Хельсинг через торрент piratbit.org

Размер: 61.63 GB | Добавлен: 4 года 4 мес. назад | Торрент скачан:70 раз
Смотреть онлайн | Скачать | Поддержите нас   

17-09-2018 01:22 Ван Хельсинг Скачать торрент  

Ван Хельсинг / Van Helsing
Год выпуска: 2004
Страна: США, Чехия
Жанр: фэнтези, боевик, триллер, приключения
Продолжительность: 02:11:37
Перевод:

Перевод 1: Профессиональный (дублированный) | R5
Перевод 2: Профессиональный (многоголосый закадровый)
Перевод 3: Профессиональный (двухголосый закадровый) | Tycoon Studio
Перевод 4: Профессиональный (двухголосый закадровый) | РЕН ТВ
Перевод 5: Авторский (одноголосый закадровый) | А. Гаврилов
Перевод 6: Авторский (одноголосый закадровый) | Ю. Живов
Перевод 7: Авторский (одноголосый закадровый) | Е. Рудой
Перевод 8: Oдноголосый закадровый | Е. Солодухин

Субтитры: русские (full, full - Ганс), английские (full, SDH, Commentary)

Режиссер: Стивен Соммерс

rating

В ролях:

Хью Джекман, Кейт Бекинсейл, Ричард Роксбург, Дэвид Уэнэм, Шулер Хенсли, Елена Анайя, Уилл Кемп, Кевин Дж. О’Коннор, Алан Армстронг, Сильвия Коллока, Джози Мэран, Том Фишер, Сэмюэл Уэст

Описание:

Глубоко в Карпатах лежит таинственная страна Трансильвания — мир, в котором зло встречается на каждом шагу, мир, в котором опасность оживает с заходом солнца, и где монстры, живущие в глубине человеческих кошмаров, обретают форму. В этот мир попадает легендарный охотник на чудовищ Ван Хельсинг.

В своей непрерывной битве против сил зла и за освобождение мира от порождений ада Ван Хельсинг, по заданию секретного общества, отправляется в Трансильванию, чтобы скрестить оружие со смертельно опасным, наделённым неведомой силой графом Дракулой. На помощь ему внезапно приходит бесстрашная Анна Валери, поставившая целью избавить свою семью от векового проклятья, наложенного убитым вампиром.

Качество: BD Remux
Формат: MKV

Видео: MPEG-H HEVC Video / 42459 kbps / 3840x2160 / 23.976 fps / 16:9 / Main 10 Profile 5.1 High / 4:2:0 / 10 bits / HDR / BT.2020 /
Аудио#1: Russian AC3 / 5.1 / 48 kHz / 448 kbps / 16-bit |Дубляж, R5|
Аудио#2: Russian AC3 / 5.1 / 48 kHz / 384 kbps / 16-bit |MVO|
Аудио#3: Russian AC3 / 5.1 / 48 kHz / 448 kbps / 16-bit |DVO, Tycoon Studio|
Аудио#4: Russian AC3 / 2.0 / 48 kHz / 192 kbps / 16-bit |DVO, РЕН ТВ|
Аудио#5: Russian DTS-HD Master Audio / 5.1 / 48 kHz / 4533 kbps / 24-bit (DTS Core: 5.1 / 48 kHz / 1509 kbps / 24-bit) |А. Гаврилов|
Аудио#6: Russian DTS-HD Master Audio / 5.1 / 48 kHz / 4501 kbps / 24-bit (DTS Core: 5.1 / 48 kHz / 1509 kbps / 24-bit) |Ю. Живов|
Аудио#7: Russian DTS-HD Master Audio / 5.1 / 48 kHz / 4506 kbps / 24-bit (DTS Core: 5.1 / 48 kHz / 1509 kbps / 24-bit) |Е. Рудой|
Аудио#8: Russian AC3 / 5.1 / 48 kHz / 448 kbps / 16-bit |Е. Солодухин|
Аудио#9: English DTS:X/DTS-HD Master Audio / 7.1-X / 48 kHz / 8729 kbps / 24-bit (DTS Core: 5.1 / 48 kHz / 1509 kbps / 24-bit) |original|
Аудио#10: English AC3 / 2.0 / 48 kHz / 192 kbps / 16-bit |Commentary by Director Stephen Sommers and Producer Bob Ducsay|
Аудио#11: English AC3 / 2.0 / 48 kHz / 192 kbps / 16-bit |Commentary by Actors Richard Roxburgh, Will Kemp and Shuler Hensley|
скриншот  скриншот  скриншот  

скриншот  скриншот  скриншот  

Общее
Уникальный идентификатор : 190967592113583108688609745283817887436 (0x8FAB0539525269AD4758FCCCBCAF56CC)
Полное имя : H:\UHD\Ван Хельсинг.2004.UHD.Blu-Ray.Remux.2160p.mkv
Формат : Matroska
Версия формата : Version 4
Размер файла : 61,6 Гбайт
Продолжительность : 2 ч. 11 м.
Режим общего битрейта : Переменный
Общий поток : 67,0 Мбит/сек
Дата кодирования : UTC 2018-09-16 12:24:37
Программа кодирования : mkvmerge v26.0.0 ('In The Game') 64-bit
Библиотека кодирования : libebml v1.3.6 + libmatroska v1.4.9
Attachments : poster.jpg

Видео
Идентификатор : 1
Формат : HEVC
Формат/Информация : High Efficiency Video Coding
Коммерческое название : HDR10
Профиль формата : Main 10@L5.1@High
Идентификатор кодека : V_MPEGH/ISO/HEVC
Продолжительность : 2 ч. 11 м.
Битрейт : 42,5 Мбит/сек
Ширина : 3840 пикселей
Высота : 2160 пикселей
Соотношение сторон : 16:9
Режим частоты кадров : Постоянный
Частота кадров : 23,976 (24000/1001) кадра/сек
Цветовое пространство : YUV
Субдискретизация насыщенности : 4:2:0 (Type 2)
Битовая глубина : 10 бит
Бит/(Пиксели*Кадры) : 0.213
Размер потока : 39,0 Гбайт (63%)
Библиотека кодирования : ATEME Titan File 3.7.9 (4.7.9.0)
Default : Да
Forced : Нет
Цветовой диапазон : Limited
Основные цвета : BT.2020
Характеристики трансфера : PQ
Коэффициенты матрицы : BT.2020 non-constant
MasteringDisplay_ColorPrimaries : Display P3
MasteringDisplay_Luminance : min: 0.0050 cd/m2, max: 1000 cd/m2
MaxCLL : 1001 cd/m2
MaxFALL : 535 cd/m2

Аудио #1
Идентификатор : 2
Формат : AC-3
Формат/Информация : Audio Coding 3
Коммерческое название : Dolby Digital
Идентификатор кодека : A_AC3
Продолжительность : 2 ч. 11 м.
Вид битрейта : Постоянный
Битрейт : 448 Кбит/сек
Каналы : 6 каналов
Channel layout : L R C LFE Ls Rs
Частота : 48,0 КГц
Частота кадров : 31,250 кадров/сек (1536 SPF)
Битовая глубина : 16 бит
Метод сжатия : С потерями
Размер потока : 421 Мбайт (1%)
Заголовок : Дубляж, R5
Язык : Russian
ServiceKind/String : Complete Main
Default : Да
Forced : Нет

Аудио #2
Идентификатор : 3
Формат : AC-3
Формат/Информация : Audio Coding 3
Коммерческое название : Dolby Digital
Идентификатор кодека : A_AC3
Продолжительность : 2 ч. 11 м.
Вид битрейта : Постоянный
Битрейт : 384 Кбит/сек
Каналы : 6 каналов
Channel layout : L R C LFE Ls Rs
Частота : 48,0 КГц
Частота кадров : 31,250 кадров/сек (1536 SPF)
Битовая глубина : 16 бит
Метод сжатия : С потерями
Размер потока : 361 Мбайт (1%)
Заголовок : MVO
Язык : Russian
ServiceKind/String : Complete Main
Default : Нет
Forced : Нет

Аудио #3
Идентификатор : 4
Формат : AC-3
Формат/Информация : Audio Coding 3
Коммерческое название : Dolby Digital
Идентификатор кодека : A_AC3
Продолжительность : 2 ч. 11 м.
Вид битрейта : Постоянный
Битрейт : 448 Кбит/сек
Каналы : 6 каналов
Channel layout : L R C LFE Ls Rs
Частота : 48,0 КГц
Частота кадров : 31,250 кадров/сек (1536 SPF)
Битовая глубина : 16 бит
Метод сжатия : С потерями
Размер потока : 422 Мбайт (1%)
Заголовок : DVO, Tycoon Studio
Язык : Russian
ServiceKind/String : Complete Main
Default : Нет
Forced : Нет

Аудио #4
Идентификатор : 5
Формат : AC-3
Формат/Информация : Audio Coding 3
Коммерческое название : Dolby Digital
Идентификатор кодека : A_AC3
Продолжительность : 2 ч. 11 м.
Вид битрейта : Постоянный
Битрейт : 192 Кбит/сек
Каналы : 2 канала
Channel layout : L R
Частота : 48,0 КГц
Частота кадров : 31,250 кадров/сек (1536 SPF)
Битовая глубина : 16 бит
Метод сжатия : С потерями
Размер потока : 181 Мбайт (0%)
Заголовок : DVO, РЕН ТВ
Язык : Russian
ServiceKind/String : Complete Main
Default : Нет
Forced : Нет

Аудио #5
Идентификатор : 6
Формат : DTS XLL
Формат/Информация : Digital Theater Systems
Коммерческое название : DTS-HD Master Audio
Идентификатор кодека : A_DTS
Продолжительность : 2 ч. 11 м.
Вид битрейта : Переменный
Битрейт : 4533 Кбит/сек
Каналы : 6 каналов
Channel layout : C L R Ls Rs LFE
Частота : 48,0 КГц
Частота кадров : 93,750 кадра/сек (512 SPF)
Битовая глубина : 24 бит
Метод сжатия : Без потерь
Размер потока : 4,16 Гбайт (7%)
Заголовок : А. Гаврилов
Язык : Russian
Default : Нет
Forced : Нет

Аудио #6
Идентификатор : 7
Формат : DTS XLL
Формат/Информация : Digital Theater Systems
Коммерческое название : DTS-HD Master Audio
Идентификатор кодека : A_DTS
Продолжительность : 2 ч. 11 м.
Вид битрейта : Переменный
Битрейт : 4501 Кбит/сек
Каналы : 6 каналов
Channel layout : C L R Ls Rs LFE
Частота : 48,0 КГц
Частота кадров : 93,750 кадра/сек (512 SPF)
Битовая глубина : 24 бит
Метод сжатия : Без потерь
Размер потока : 4,14 Гбайт (7%)
Заголовок : Ю. Живов
Язык : Russian
Default : Нет
Forced : Нет

Аудио #7
Идентификатор : 8
Формат : DTS XLL
Формат/Информация : Digital Theater Systems
Коммерческое название : DTS-HD Master Audio
Идентификатор кодека : A_DTS
Продолжительность : 2 ч. 11 м.
Вид битрейта : Переменный
Битрейт : 4506 Кбит/сек
Каналы : 6 каналов
Channel layout : C L R Ls Rs LFE
Частота : 48,0 КГц
Частота кадров : 93,750 кадра/сек (512 SPF)
Битовая глубина : 24 бит
Метод сжатия : Без потерь
Размер потока : 4,14 Гбайт (7%)
Заголовок : Е. Рудой
Язык : Russian
Default : Нет
Forced : Нет

Аудио #8
Идентификатор : 9
Формат : AC-3
Формат/Информация : Audio Coding 3
Коммерческое название : Dolby Digital
Идентификатор кодека : A_AC3
Продолжительность : 2 ч. 11 м.
Вид битрейта : Постоянный
Битрейт : 448 Кбит/сек
Каналы : 6 каналов
Channel layout : L R C LFE Ls Rs
Частота : 48,0 КГц
Частота кадров : 31,250 кадров/сек (1536 SPF)
Битовая глубина : 16 бит
Метод сжатия : С потерями
Размер потока : 421 Мбайт (1%)
Заголовок : Е. Солодухин
Язык : Russian
ServiceKind/String : Complete Main
Default : Нет
Forced : Нет

Аудио #9
Идентификатор : 10
Формат : DTS XLL X
Формат/Информация : Digital Theater Systems
Коммерческое название : DTS-HD Master Audio
Идентификатор кодека : A_DTS
Продолжительность : 2 ч. 11 м.
Вид битрейта : Переменный
Битрейт : 8729 Кбит/сек
Каналы : 8 каналов
Channel(s)_Original : Object Based
Channel layout : Object Based
Частота : 48,0 КГц
Частота кадров : 93,750 кадра/сек (512 SPF)
Битовая глубина : 24 бит
Размер потока : 8,02 Гбайт (13%)
Язык : English
Default : Нет
Forced : Нет

Аудио #10
Идентификатор : 11
Формат : AC-3
Формат/Информация : Audio Coding 3
Коммерческое название : Dolby Digital
Идентификатор кодека : A_AC3
Продолжительность : 2 ч. 11 м.
Вид битрейта : Постоянный
Битрейт : 192 Кбит/сек
Каналы : 2 канала
Channel layout : L R
Частота : 48,0 КГц
Частота кадров : 31,250 кадров/сек (1536 SPF)
Битовая глубина : 16 бит
Метод сжатия : С потерями
Размер потока : 181 Мбайт (0%)
Заголовок : Commentary by Director Stephen Sommers and Producer Bob Ducsay
Язык : English
ServiceKind/String : Complete Main
Default : Нет
Forced : Нет

Аудио #11
Идентификатор : 12
Формат : AC-3
Формат/Информация : Audio Coding 3
Коммерческое название : Dolby Digital
Идентификатор кодека : A_AC3
Продолжительность : 2 ч. 11 м.
Вид битрейта : Постоянный
Битрейт : 192 Кбит/сек
Каналы : 2 канала
Channel layout : L R
Частота : 48,0 КГц
Частота кадров : 31,250 кадров/сек (1536 SPF)
Битовая глубина : 16 бит
Метод сжатия : С потерями
Размер потока : 181 Мбайт (0%)
Заголовок : Commentary by Actors Richard Roxburgh, Will Kemp and Shuler Hensley
Язык : English
ServiceKind/String : Complete Main
Default : Нет
Forced : Нет

Текст #1
Идентификатор : 13
Формат : UTF-8
Идентификатор кодека : S_TEXT/UTF8
Идентификатор кодека/Информация : UTF-8 Plain Text
Продолжительность : 2 ч. 2 м.
Битрейт : 52 бит/сек
ElementCount : 846
Размер потока : 47,6 Кбайт (0%)
Заголовок : full
Язык : Russian
Default : Нет
Forced : Нет

Текст #2
Идентификатор : 14
Формат : UTF-8
Идентификатор кодека : S_TEXT/UTF8
Идентификатор кодека/Информация : UTF-8 Plain Text
Продолжительность : 2 ч. 4 м.
Битрейт : 57 бит/сек
ElementCount : 901
Размер потока : 52,6 Кбайт (0%)
Заголовок : full - Ганс
Язык : Russian
Default : Нет
Forced : Нет

Текст #3
Идентификатор : 15
Формат : UTF-8
Идентификатор кодека : S_TEXT/UTF8
Идентификатор кодека/Информация : UTF-8 Plain Text
Продолжительность : 1 ч. 58 м.
Битрейт : 42 бит/сек
ElementCount : 1157
Размер потока : 36,9 Кбайт (0%)
Заголовок : full
Язык : English
Default : Нет
Forced : Нет

Текст #4
Идентификатор : 16
Формат : UTF-8
Идентификатор кодека : S_TEXT/UTF8
Идентификатор кодека/Информация : UTF-8 Plain Text
Продолжительность : 2 ч. 1 м.
Битрейт : 42 бит/сек
ElementCount : 1204
Размер потока : 38,0 Кбайт (0%)
Заголовок : SDH
Язык : English
Default : Нет
Forced : Нет

Текст #5
Идентификатор : 17
Формат : UTF-8
Идентификатор кодека : S_TEXT/UTF8
Идентификатор кодека/Информация : UTF-8 Plain Text
Продолжительность : 2 ч. 2 м.
Битрейт : 138 бит/сек
ElementCount : 2238
Размер потока : 124 Кбайт (0%)
Заголовок : Commentary by Director Stephen Sommers and Producer Bob Ducsay
Язык : English
Default : Нет
Forced : Нет

Текст #6
Идентификатор : 18
Формат : UTF-8
Идентификатор кодека : S_TEXT/UTF8
Идентификатор кодека/Информация : UTF-8 Plain Text
Продолжительность : 2 ч. 1 м.
Битрейт : 98 бит/сек
ElementCount : 1972
Размер потока : 88,0 Кбайт (0%)
Заголовок : Commentary by Actors Richard Roxburgh, Will Kemp and Shuler Hensley
Язык : English
Default : Нет
Forced : Нет

Меню
00:00:00.000 : en:It's Alive
00:07:49.219 : en:The Vatican's Avenger
00:13:42.613 : en:The Order
00:20:14.505 : en:Werewolf Hunters
00:23:12.766 : en:Welcome to Transylvania
00:33:58.078 : en:His Name Is Van Helsing
00:38:22.258 : en:Looking for Answers
00:40:34.307 : en:Curse of the Werewolf
00:48:41.794 : en:Castle Frankenstein
00:53:18.904 : en:Dracula's Children
01:02:07.057 : en:Old Acquaintances
01:04:31.826 : en:Failure
01:08:43.077 : en:The Living Painting
01:09:55.108 : en:The Frankenstein Monster
01:14:17.828 : en:Hell on Wheels
01:18:55.356 : en:Mark of the Wolf
01:23:57.950 : en:The Monster's Ball
01:29:19.145 : en:Van Helsing's Vow
01:31:11.424 : en:The Door to Dracula
01:37:31.054 : en:The Cure
01:40:34.612 : en:Life for My Children
01:43:46.429 : en:You Can Go When You're Dead
01:45:56.892 : en:The Spawning
01:50:21.240 : en:The Only Way
01:55:16.118 : en:The Left Hand of God
01:57:08.438 : en:Sacrifice
01:58:42.365 : en:Reunion
02:02:01.231 : en:End Titles




Скачать Ван Хельсинг через торрент http://img11.lostpic.net/2018/09/17/129b55d2aed8a7f1743e605105c5cd97.jpg Скачать, смотреть онлайн Ван Хельсинг бесплантно в хорошем качестве Описание: Глубоко в Карпатах лежит таинственная страна Трансильвания — мир, в котором зло встречается на каждом шагу, мир, в котором ... 10 10 4
Торрент: Зарегистрирован [2018-09-17 01:22] · скачан: 70 раз
Статус: √ проверено
Размер: 61.63 GB
Как cкачать? Как скачать Ван Хельсинг через торрент | UTorrent

28-11-2019 20:33  


Отключить вcю реклaмy на сайте, в т.ч. и в плеере онлайн просмотра!

    Дорогой пользователь! Огромная просьба, поблагодарите релизера, оцените раздачу и оставьте свои комментарий, если Вы скачали Ван Хельсинг через торрент бесплатно!!
    Комментировать посты могут только пользователи прошедшие не сложную регистрацию
    Показать сообщения:    


    Ван Хельсинг через торрент
    Скачать бесплатно Ван Хельсинг
    Ван Хельсинг скачать торрент
    Ван Хельсинг смотреть онлайн
    Cкачать фильм Ван Хельсинг бесплатно
    Ван Хельсинг скачать торрент в хорошем качестве
    Ван Хельсинг смотреть онлайн бесплатно в хорошем качестве
    Вы не можете начинать темы
    Вы не можете отвечать на сообщения
    Вы не можете редактировать свои сообщения
    Вы не можете удалять свои сообщения
    Вы не можете голосовать в опросах
    Вы не можете прикреплять файлы к сообщениям
    Вы можете скачивать файлы
    Ван Хельсинг / Van Helsing [2004, фэнтези, боевик, триллер, приключения, UHD BDRemux 2160p] MVO+2xDVO+3xAVO+VO+Дубляж смотреть онлайн, скачать торрент picoco.icu