1 сезон

3 сезон

iTunes

1

iTunes

DUB Netflix

iTunes

13

1 сезон

RePack

30

Deluxe

pack

Легкие деньги

ВАЖНО

ИГРА 18+

pack

RePack

MK11

RePack

jed

RePack

fifa19

RePack

RDR2

RePack

NEED FOR SPEED™ PAYBACK

4 сезон

9 сезон

Бесстыжие 9 сезон

Все сериалы

все сериалы на PB.wtf

RePack

FAR CRY 5

Anonymous, добрый вечер, мы не успеваем до 1 числа собрать деньги на оплату серверов, помогите нам пожалуйста в это трудное время. В качестве благодарности мы отключим Вам всю рекламу на сайте (укажите свой ник в строку Ваше имя)!

×
  
Magnet ссылка

СашаТаня / Сезон: 7 / Серии: 1-12 из 12 (Михаил Старчак) [2018, комедия, HDTVRip] piratbit.org

СашаТаня через торрент piratbit.org

Размер: 3.52 GB | Добавлен: 2 года 9 мес. назад | Торрент скачан:20 раз
Скачать  

17-09-2018 12:29 СашаТаня Скачать торрент  

СашаТаня
Год выпуска: 2018
Страна: Россия
Жанр: комедия
Продолжительность: ~ 00:24:00
Перевод: Не требуется
Субтитры: отсутствуют

Режиссер: Михаил Старчак



В ролях:

Андрей Гайдулян, Валентина Рубцова, Алексей Климушкин, Елена Бирюкова, Татьяна Орлова, Андрей Лебедев, Ксения Хаирова, Олег Новиков (IV), Сергей Рудзевич, Сергей Мурзин, Андрей Свиридов, Павел Кассинский, Виталий Гогунский, Арарат Кещян, Ёлка, Алексей Гаврилов, Лариса Баранова, Алина Кизиярова-Ланина, Екатерина Шукшина, Владимир Епифанцев, Светлана Тимофеева-Летуновская

Описание:

Сериал про молодую семью Сергеевых. После окончания института Саша и Таня вместе со своим маленьким сыном Алёшкой решили пожить самостоятельно и сняли квартиру в Южном Бутово. Райончик конечно не из лучших, но зато и цены на жилье тут доступные, ведь Саша не собирается пользоваться миллиардами своего папы. Но Сильвестр Андреевич не собирается так просто отставать от молодых и тем более от своего внука. Поэтому он поселился по соседству, только в просторной и роскошной квартире.

Качество: HDTVRip
Формат: AVI

Видео: XviD build 73, 720x400 (16:9), 25.000 fps, ~ 1600 Kbps (~ 0.232 bit/pixel)
Аудио: AC3, 2 ch, 192 Кбит/с
скриншот  скриншот  скриншот  скриншот  скриншот  

Общее
Полное имя : D:\SashaTanja.s07.2018.XviD.HDTVRip.GeneralFilm\SashaTanja.s07.e01.avi
Формат : AVI
Формат/Информация : Audio Video Interleave
Размер файла : 299 Мбайт
Продолжительность : 22 м. 25 с.
Общий поток : 1865 Кбит/сек
Программа кодирования : VirtualDubMod 1.5.10.3 | www.virtualdub-fr.org || (build 2550/release)
Библиотека кодирования : VirtualDubMod build 2550/release

Видео
Идентификатор : 0
Формат : MPEG-4 Visual
Профиль формата : Advanced Simple@L5
Параметр BVOP формата : 1
Параметр QPel формата : Нет
Параметр GMC формата : Без точки перехода
Параметр матрицы формата : Выборочная
Идентификатор кодека : XVID
Идентификатор кодека/Подсказка : XviD
Продолжительность : 22 м. 25 с.
Битрейт : 1664 Кбит/сек
Ширина : 720 пикселей
Высота : 400 пикселей
Соотношение сторон : 16:9
Частота кадров : 25,000 кадров/сек
Цветовое пространство : YUV
Субдискретизация насыщенности : 4:2:0
Битовая глубина : 8 бит
Тип развёртки : Прогрессивная
Метод сжатия : С потерями
Бит/(Пиксели*Кадры) : 0.231
Размер потока : 267 Мбайт (89%)
Библиотека кодирования : XviD 73

Аудио
Идентификатор : 1
Формат : AC-3
Формат/Информация : Audio Coding 3
Расширение режима : CM (complete main)
Параметр Endianness формата : Big
Идентификатор кодека : 2000
Продолжительность : 22 м. 25 с.
Вид битрейта : Постоянный
Битрейт : 192 Кбит/сек
Каналы : 2 канала
Расположение каналов : Front: L R
Частота : 48,0 КГц
Частота кадров : 31,250 кадров/сек (1536 spf)
Метод сжатия : С потерями
Размер потока : 30,8 Мбайт (10%)
Выравнивание : Разделение по промежуткам
Продолжительность промежутка : 40 мс. (1,00 видеокадр)
Время предзагрузки промежутка : 500 мс.

piratbit.org



Скачать СашаТаня через торрент http://img11.lostpic.net/2018/09/02/84bbb9ba708c2eff7e9b248d3509af4e.jpg Скачать фильм СашаТаня через торрент бесплантно в хорошем качестве Описание: Сериал про молодую семью Сергеевых. После окончания института Саша и Таня вместе со своим маленьким сыном Алёшкой решили пожить ... 10 10 2
Торрент: Зарегистрирован [2018-09-17 12:29] · скачан: 20 раз
Статус: √ проверено
Размер: 3.52 GB
Как cкачать? Как скачать СашаТаня через торрент | UTorrent

% Раздел Тема Автор DL S | L
TNT serials [ 7.53 GB ] СашаТаня / Сезон: 7 / Серии: 1-12 из 12 [2018 WEB-DL 720p] bober100 Скачать
1 | 0
TNT serials [ 3.99 GB ] СашаТаня / Сезон: 7 / Серии: 1-12 из 12 [2018 WEB-DLRip] bober100 Скачать
1 | 0
TNT serials [ 10.31 GB ] СашаТаня / Сезон: 7 / Серии: 1-12 из 12 [2018 WEB-DL 1080p] bober100 Скачать
1 | 0
TNT serials [ 8.2 GB ] СашаТаня / Сезон: 7 / Серии: 1-12 из 12 [2018 HDTVRip 720p] bober100 Скачать
1 | 0
TNT serials [ 4.29 GB ] СашаТаня / Сезон: 7 / Серии: 1-12 из 12 [2018 HDTVRip-AVC] bober100 Скачать
1 | 0
TNT serials [ 15.7 GB ] СашаТаня / Сезон: 7 / Серии: 1-12 из 12 [2018 HDTV 1080i] bober100 Скачать
1 | 0
TNT serials [ 3.62 GB ] СашаТаня / Сезон: 7 / Серии: 1-12 из 12 [2018 SATRip] bober100 Скачать
1 | 0

28-11-2019 20:33  

Отключить всю рекламу на сайте


    Дорогой пользователь! Огромная просьба, поблагодарите релизера, оцените раздачу и оставьте свои комментарий, если Вы скачали СашаТаня через торрент бесплатно! Внесите свою лепту в развитие PiratBit!
    Комментировать посты могут только пользователи прошедшие не сложную регистрацию
    Показать сообщения:    

    СашаТаня через торрент
    Скачать бесплатно СашаТаня
    СашаТаня скачать торрент
    СашаТаня смотреть онлайн
    Cкачать фильм СашаТаня бесплатно
    СашаТаня скачать торрент в хорошем качестве
    СашаТаня смотреть онлайн бесплатно в хорошем качестве


    Вы не можете начинать темы
    Вы не можете отвечать на сообщения
    Вы не можете редактировать свои сообщения
    Вы не можете удалять свои сообщения
    Вы не можете голосовать в опросах
    Вы не можете прикреплять файлы к сообщениям
    Вы можете скачивать файлы