Достать ножи: Стеклянная луковица

MVO

Добыча

Дубляж

Уэнсдэй

1 сезон

Тор

Дубляж

13 клиническая

1 сезон

Жестокая ночь

MVO

Одни из нас

1 сезон

Deluxe

pack

Рекомендуем

30

Пиратка

ВАЖНО

ВАЖНО

Ghostwire

Пиратка

jed

RePack

nioh2

RePack

RDR2

RePack

NEED FOR SPEED™ PAYBACK

RePack

скачать торрент

Кинопоиск HD

Острые козырьки 6 сезон

6 сезон

FAR CRY 6

RePack

скачать торрент

Лицензия

скачать торрент

MVO

1

1 сезон

скачать торрент

1 сезон

скачать торрент

Лицензия

  

Хан Соло: Звёздные войны. Истории / Solo: A Star Wars Story (Рон Ховард) [2018, фантастика, фэнтези, боевик, UHD BDRip 2160p] [SDR] Дубляж [Лицензия]

Хан Соло: Звёздные войны. Истории через торрент piratbit.org

Размер: 26.41 GB | Добавлен: 4 года 4 мес. назад | Торрент скачан:150 раз
Смотреть онлайн | Скачать | Поддержите нас   

18-09-2018 03:33 Хан Соло: Звёздные войны. Истории Скачать торрент  

Хан Соло: Звёздные войны. Истории / Solo: A Star Wars Story«Never tell him the odds»
Год выпуска: 2018
Страна: США
Жанр: фантастика, фэнтези, боевик, приключения
Продолжительность: 02:14:46
Перевод: Дублированный | Лицензия
Субтитры: Русские (Форсированные), Русские, English.
Режиссер: Рон Ховард
В ролях:

Олден Эренрайк (Han Solo), Йонас Суотамо (Chewbacca), Вуди Харрельсон (Beckett), Эмилия Кларк (Qi'ra), Дональд Гловер (Lando Calrissian), Тэнди Ньютон (Val), Фиби Уоллер-Бридж (L3-37), Пол Беттани (Dryden Vos), Джон Фавро (Rio Durant, озвучка), Эрин Келлиман (Enfys Nest), Линда Хант (Lady Proxima, озвучка), Йен Кенни (Rebolt)
Описание:
Фильм расскажет о похождениях юного космического сорвиголовы Хана Соло и его верного напарника Чубакки и о том, как они стали самыми быстрыми пилотами и самыми хитрыми контрабандистами далёкой Галактики.
Рейтинг:

MPAA: PG-13 - Детям до 13 лет просмотр не желателен
Качество: UHD BDRip 2160p | SDR
Формат: MKV
Видео: MPEG-4 AVC, 21700 Кбит/с, 3840x1608, 23.976 Кадр/с
Аудио 1: AC3, 3/2 ch, 640 kbps Дублированное_Лицензия_BD CEE
Аудио 2: TrueHD+Atmos 7.1 / 48 kHz / 4981 kbps / 24-bit English
Аудио 3: AC3, 3/2 ch, 640 kbps / 24-bit English
Навигация по главам: есть
Общее
Уникальный идентификатор : 177523762903492740303162770771086094823 (0x858DD544D62D9360B675280A504331E7)
Полное имя : G:\Solo.A.Star.Wars.Story.2018.2160p.UHD.BDRip.x264.8bit.SDR.Master5.mkv
Формат : Matroska
Версия формата : Version 4 / Version 2
Размер файла : 26,4 Гбайт
Продолжительность : 2 ч. 14 м.
Режим общего битрейта : Переменный
Общий поток : 28,1 Мбит/сек
Название фильма : Solo.A.Star.Wars.Story.2018.2160p.UHD.BDRip.x264.8bit.SDR.Master5
Дата кодирования : UTC 2018-09-17 22:43:57
Программа кодирования : mkvmerge v7.9.0 ('Birds') 64bit
Библиотека кодирования : libebml v1.3.1 + libmatroska v1.4.2
Обложка : Yes
Attachments : cover_land.jpg / small_cover.jpg / small_cover_land.jpg / cover.jpg / cover.jpg

Видео
Идентификатор : 1
Формат : AVC
Формат/Информация : Advanced Video Codec
Профиль формата : High@L5.1
Настройки формата : CABAC / 5 Ref Frames
Параметр CABAC формата : Да
Параметр RefFrames формата : 5 кадров
Идентификатор кодека : V_MPEG4/ISO/AVC
Продолжительность : 2 ч. 14 м.
Битрейт : 21,7 Мбит/сек
Ширина : 3840 пикселей
Высота : 1608 пикселей
Соотношение сторон : 2,40:1
Режим частоты кадров : Постоянный
Частота кадров : 23,976 (24000/1001) кадра/сек
Цветовое пространство : YUV
Субдискретизация насыщенности : 4:2:0
Битовая глубина : 8 бит
Тип развёртки : Прогрессивная
Бит/(Пиксели*Кадры) : 0.147
Размер потока : 20,5 Гбайт (77%)
Заголовок : Solo.A.Star.Wars.Story.2018.2160p.UHD.BDRip.x264.8bit.SDR.Master5
Библиотека кодирования : x264 core 155 r2901 7d0ff22
Настройки программы : cabac=1 / ref=5 / deblock=1:-1:-1 / analyse=0x3:0x113 / me=umh / subme=10 / psy=1 / psy_rd=1.00:0.15 / mixed_ref=1 / me_range=48 / chroma_me=1 / trellis=2 / 8x8dct=1 / cqm=0 / deadzone=21,11 / fast_pskip=1 / chroma_qp_offset=-3 / threads=50 / lookahead_threads=4 / sliced_threads=0 / nr=0 / decimate=0 / interlaced=0 / bluray_compat=0 / constrained_intra=0 / bframes=3 / b_pyramid=2 / b_adapt=2 / b_bias=0 / direct=3 / weightb=1 / open_gop=0 / weightp=2 / keyint=250 / keyint_min=23 / scenecut=40 / intra_refresh=0 / rc_lookahead=50 / rc=crf / mbtree=1 / crf=18.0 / qcomp=0.60 / qpmin=0 / qpmax=69 / qpstep=4 / ip_ratio=1.40 / aq=1:1.00
Default : Да
Forced : Нет

Аудио #1
Идентификатор : 2
Формат : AC-3
Формат/Информация : Audio Coding 3
Идентификатор кодека : A_AC3
Продолжительность : 2 ч. 14 м.
Вид битрейта : Постоянный
Битрейт : 640 Кбит/сек
Каналы : 6 каналов
Расположение каналов : Front: L C R, Side: L R, LFE
Частота : 48,0 КГц
Частота кадров : 31,250 кадров/сек (1536 SPF)
Битовая глубина : 16 бит
Метод сжатия : С потерями
Размер потока : 617 Мбайт (2%)
Заголовок : BD CEE
Язык : Russian
ServiceKind/String : Complete Main
Default : Да
Forced : Да

Аудио #2
Идентификатор : 3
Формат : TrueHD
Профиль формата : TrueHD+Atmos / TrueHD
Идентификатор кодека : A_TRUEHD
Продолжительность : 2 ч. 14 м.
Вид битрейта : Переменный
Битрейт : 4981 Кбит/сек
Максимальный битрейт : 4647 Кбит/сек
Каналы : Object Based / 8 каналов
Расположение каналов : Object Based / Front: L C R, Side: L R, Back: L R, LFE
Частота : / 48,0 КГц
Частота кадров : 1200,000 кадров/сек (40 SPF)
Метод сжатия : Без потерь
Задержка видео : 33 мс.
Размер потока : 4,69 Гбайт (18%)
Язык : English
Default : Нет
Forced : Нет

Аудио #3
Идентификатор : 4
Формат : AC-3
Формат/Информация : Audio Coding 3
Идентификатор кодека : A_AC3
Продолжительность : 2 ч. 14 м.
Вид битрейта : Постоянный
Битрейт : 640 Кбит/сек
Каналы : 6 каналов
Расположение каналов : Front: L C R, Side: L R, LFE
Частота : 48,0 КГц
Частота кадров : 31,250 кадров/сек (1536 SPF)
Битовая глубина : 16 бит
Метод сжатия : С потерями
Задержка видео : 32 мс.
Размер потока : 617 Мбайт (2%)
Язык : English
ServiceKind/String : Complete Main
Default : Нет
Forced : Нет

Текст #1
Идентификатор : 5
Формат : UTF-8
Идентификатор кодека : S_TEXT/UTF8
Идентификатор кодека/Информация : UTF-8 Plain Text
Продолжительность : 2 ч. 6 м.
Битрейт : 83 бит/сек
ElementCount : 1829
Размер потока : 77,5 Кбайт (0%)
Заголовок : Full
Язык : Russian
Default : Нет
Forced : Нет

Текст #2
Идентификатор : 6
Формат : UTF-8
Идентификатор кодека : S_TEXT/UTF8
Идентификатор кодека/Информация : UTF-8 Plain Text
Продолжительность : 1 ч. 20 м.
Битрейт : 2 бит/сек
ElementCount : 28
Размер потока : 1,24 Кбайт (0%)
Заголовок : Forced
Язык : Russian
Default : Да
Forced : Да

Текст #3
Идентификатор : 7
Формат : UTF-8
Идентификатор кодека : S_TEXT/UTF8
Идентификатор кодека/Информация : UTF-8 Plain Text
Продолжительность : 2 ч. 5 м.
Битрейт : 56 бит/сек
ElementCount : 1958
Размер потока : 51,9 Кбайт (0%)
Заголовок : Full
Язык : English
Default : Нет
Forced : Нет

Текст #4
Идентификатор : 8
Формат : UTF-8
Идентификатор кодека : S_TEXT/UTF8
Идентификатор кодека/Информация : UTF-8 Plain Text
Продолжительность : 2 ч. 5 м.
Битрейт : 96 бит/сек
ElementCount : 2258
Размер потока : 89,4 Кбайт (0%)
Заголовок : SDH
Язык : Russian
Default : Нет
Forced : Нет

Текст #5
Идентификатор : 9
Формат : UTF-8
Идентификатор кодека : S_TEXT/UTF8
Идентификатор кодека/Информация : UTF-8 Plain Text
Продолжительность : 2 ч. 5 м.
Битрейт : 63 бит/сек
ElementCount : 2232
Размер потока : 58,5 Кбайт (0%)
Заголовок : SDH
Язык : English
Default : Нет
Forced : Нет

Текст #6
Идентификатор : 10
Формат : UTF-8
Идентификатор кодека : S_TEXT/UTF8
Идентификатор кодека/Информация : UTF-8 Plain Text
Продолжительность : 2 ч. 5 м.
Битрейт : 85 бит/сек
ElementCount : 2232
Размер потока : 78,8 Кбайт (0%)
Заголовок : SDH Colored
Язык : English
Default : Нет
Forced : Нет

Меню
00:00:00.000 : en:00:00:00.000
00:00:53.845 : en:00:00:53.845
00:02:10.213 : en:00:02:10.213
00:03:53.150 : en:00:03:53.150
00:06:00.485 : en:00:06:00.485
00:09:27.567 : en:00:09:27.567
00:13:16.045 : en:00:13:16.045
00:14:14.020 : en:00:14:14.020
00:16:12.263 : en:00:16:12.263
00:19:45.101 : en:00:19:45.101
00:22:43.821 : en:00:22:43.821
00:24:37.267 : en:00:24:37.267
00:27:00.035 : en:00:27:00.035
00:30:02.926 : en:00:30:02.926
00:32:54.681 : en:00:32:54.681
00:39:09.764 : en:00:39:09.764
00:41:59.225 : en:00:41:59.225
00:43:20.181 : en:00:43:20.181
00:44:32.128 : en:00:44:32.128
00:48:03.756 : en:00:48:03.756
00:51:58.324 : en:00:51:58.324
00:53:17.528 : en:00:53:17.528
00:57:23.523 : en:00:57:23.523
01:00:16.780 : en:01:00:16.780
01:02:40.882 : en:01:02:40.882
01:04:51.262 : en:01:04:51.262
01:05:29.509 : en:01:05:29.509
01:07:12.028 : en:01:07:12.028
01:08:05.915 : en:01:08:05.915
01:10:00.113 : en:01:10:00.113
01:12:44.193 : en:01:12:44.193
01:14:40.851 : en:01:14:40.851
01:18:30.873 : en:01:18:30.873
01:23:15.741 : en:01:23:15.741
01:26:32.646 : en:01:26:32.646
01:30:33.136 : en:01:30:33.136
01:35:19.672 : en:01:35:19.672
01:37:04.861 : en:01:37:04.861
01:38:52.802 : en:01:38:52.802
01:41:18.531 : en:01:41:18.531
01:43:02.676 : en:01:43:02.676
01:45:27.821 : en:01:45:27.821
01:46:32.177 : en:01:46:32.177
01:49:45.996 : en:01:49:45.996
01:53:33.890 : en:01:53:33.890
01:57:13.902 : en:01:57:13.902
01:58:55.128 : en:01:58:55.128
02:01:34.829 : en:02:01:34.829
02:03:20.893 : en:02:03:20.893
02:06:09.353 : en:02:06:09.353



Скачать Хан Соло: Звёздные войны. Истории через торрент https://b.radikal.ru/b18/1809/88/57afc5a3c266.png Скачать, смотреть онлайн Хан Соло: Звёздные войны. Истории бесплантно в хорошем качестве Описание: Фильм расскажет о похождениях юного космического сорвиголовы Хана Соло и его верного напарника Чубакки и о том, как они стали ... 10 10 4
Торрент: Зарегистрирован [2018-09-18 03:33] · скачан: 150 раз
Статус: √ проверено
Размер: 26.41 GB
Как cкачать? Как скачать Хан Соло: Звёздные войны. Истории через торрент | UTorrent

% Раздел Тема Автор DL S | L
3D Фильмы [ 8.84 GB ] Хан Соло: Звёздные войны. Истории в 3D / Solo: A Star Wars Story in 3D | Дубляж | 1080p, Дубляж slaventi-69 Скачать
1 | 2
Фильмы [HD 720p, 1080p] (Хороший звук DUB, MVO) [ 5.75 GB ] Хан Соло: Звёздные Войны. Истории / Solo: A Star Wars Story | Лицензия | 720p bober100 Скачать
2 | 0
Фильмы с авторской озвучкой [ 2.06 GB ] Хан Соло: Звёздные Войны. Истории / Solo: A Star Wars Story | AVO | BDRip killermax2013 Скачать
1 | 0
Фильмы (Blu-ray, BD-Remux, HDDVD) [ 39.08 GB ] Хан Соло: Звёздные Войны. Истории / Solo: A Star Wars Story | Лицензия | 1080p bober100 Скачать
1 | 0
Фильмы (Blu-ray, BD-Remux, HDDVD) [ 34.84 GB ] Хан Соло: Звёздные войны. Истории / Solo: A Star Wars Story | Лицензия | 1080p sheker187 Скачать
1 | 0
Фильмы [HD 720p, 1080p] (Хороший звук DUB, MVO) [ 7.29 GB ] Хан Соло: Звёздные Войны. Истории / Solo: A Star Wars Story | Лицензия | 1080p, (10bit bober100 Скачать
2 | 0
Фильмы 2018 [DVDrip, WEB-DLRip, HDrip] (DUB, MVO) [ 1.46 GB ] Хан Соло: Звёздные войны. Истории / Solo: A Star Wars Story | Лицензия | BDRip Twi7ter Скачать
1 | 0

28-11-2019 20:33  


Отключить вcю реклaмy на сайте, в т.ч. и в плеере онлайн просмотра!

    Дорогой пользователь! Огромная просьба, поблагодарите релизера, оцените раздачу и оставьте свои комментарий, если Вы скачали Хан Соло: Звёздные войны. Истории через торрент бесплатно!!
    Комментировать посты могут только пользователи прошедшие не сложную регистрацию
    Показать сообщения:    


    Хан Соло: Звёздные войны. Истории через торрент
    Скачать бесплатно Хан Соло: Звёздные войны. Истории
    Хан Соло: Звёздные войны. Истории скачать торрент
    Хан Соло: Звёздные войны. Истории смотреть онлайн
    Cкачать фильм Хан Соло: Звёздные войны. Истории бесплатно
    Хан Соло: Звёздные войны. Истории скачать торрент в хорошем качестве
    Хан Соло: Звёздные войны. Истории смотреть онлайн бесплатно в хорошем качестве
    Вы не можете начинать темы
    Вы не можете отвечать на сообщения
    Вы не можете редактировать свои сообщения
    Вы не можете удалять свои сообщения
    Вы не можете голосовать в опросах
    Вы не можете прикреплять файлы к сообщениям
    Вы можете скачивать файлы
    Хан Соло: Звёздные войны. Истории / Solo: A Star Wars Story [2018, фантастика, фэнтези, боевик, UHD BDRip 2160p] [SDR] Дубляж [Лицензия] смотреть онлайн, скачать торрент picoco.icu