1 сезон

3 сезон

iTunes

1

iTunes

DUB Netflix

iTunes

13

1 сезон

RePack

30

Deluxe

pack

Легкие деньги

ВАЖНО

ИГРА 18+

pack

RePack

MK11

RePack

jed

RePack

fifa19

RePack

RDR2

RePack

NEED FOR SPEED™ PAYBACK

4 сезон

9 сезон

Бесстыжие 9 сезон

Все сериалы

все сериалы на PB.wtf

RePack

FAR CRY 5

Anonymous, доброй ночи, мы не успеваем до 1 числа собрать деньги на оплату серверов, помогите нам пожалуйста в это трудное время. В качестве благодарности мы отключим Вам всю рекламу на сайте (укажите свой ник в строку Ваше имя)!

×
  
Magnet ссылка

Бонус / Сезон: 1 / Серии : 1-16 из 16 (Валерия Гай Германика) [2018, Драма, музыка, WEB-DLRip] piratbit.org

Бонус через торрент piratbit.org

Размер: 8.19 GB | Добавлен: 2 года 6 мес. назад | Торрент скачан:109 раз
Скачать  

19-09-2018 21:36 Бонус Скачать торрент  

Бонус
Год выпуска: 2018
Страна: Россия
Жанр: Драма, музыка
Продолжительность: ~ 00:36:00
Субтитры: отсутствуют

Режиссер: Валерия Гай Германика



В ролях:

Александр Сударев, Артем Сучков, Дмитрий Смирнов (IV), Павел Комаров (II), Варвара Назарова, Антон Адасинский, Валерий Полиенко, Юлия Ауг, Светлана Лимпер, Лана Райдер, Григорий Чабан, Евгений Смирнов-Иваницкий, Александр Логинов (III), Денис Фартовый, Екатерина Васильева (V)

Описание:

Юный рэпер из провинции по прозвищу Бонус отправляется покорять столицу, где влюбляется в дочь известного бизнесмена. Но Москва слезам и рифмам не верит: вместе с первыми выступлениями Бонусу предстоит пережить несчастную любовь, конфликты с отцом девушки, взлеты и падения на фоне столичной рэп-тусовки.


Качество: WEB-DLRip
Формат: AVI

Видео: XviD, ~ 1650 Кбит/с, 720х320
Аудио: AC3, 2 ch, 192 Кбит/с
скриншот   скриншот   скриншот   скриншот   скриншот   скриншот   скриншот  
скриншот  

Общее
Полное имя : D:\Bonus.WEB-DLRip.25Kuzmich\Bonus.e01.WEB-DLRip.25Kuzmich.avi
Формат : AVI
Формат/Информация : Audio Video Interleave
Размер файла : 469 Мбайт
Продолжительность : 35 м. 26 с.
Общий поток : 1852 Кбит/сек
Программа кодирования : VirtualDubMod 1.5.10.3 | www.virtualdub-fr.org || (build 2550/release)
Библиотека кодирования : VirtualDubMod build 2550/release

Видео
Идентификатор : 0
Формат : MPEG-4 Visual
Профиль формата : Advanced Simple@L5
Настройки формата : BVOP1
Параметр BVOP формата : 1
Параметр QPel формата : Нет
Параметр GMC формата : Без точки перехода
Параметр матрицы формата : Default (MPEG)
Идентификатор кодека : XVID
Идентификатор кодека/Подсказка : XviD
Продолжительность : 35 м. 26 с.
Битрейт : 1650 Кбит/сек
Ширина : 720 пикселей
Высота : 320 пикселей
Соотношение сторон : 2,25:1
Частота кадров : 25,000 кадров/сек
Цветовое пространство : YUV
Субдискретизация насыщенности : 4:2:0
Битовая глубина : 8 бит
Тип развёртки : Прогрессивная
Метод сжатия : С потерями
Бит/(Пиксели*Кадры) : 0.286
Размер потока : 418 Мбайт (89%)
Библиотека кодирования : XviD 1.2.1 (UTC 2008-12-04)

Аудио
Идентификатор : 1
Формат : AC-3
Формат/Информация : Audio Coding 3
Идентификатор кодека : 2000
Продолжительность : 35 м. 26 с.
Вид битрейта : Постоянный
Битрейт : 192 Кбит/сек
Каналы : 2 канала
Расположение каналов : Front: L R
Частота : 48,0 КГц
Частота кадров : 31,250 кадров/сек (1536 SPF)
Битовая глубина : 16 бит
Метод сжатия : С потерями
Размер потока : 48,7 Мбайт (10%)
Выравнивание : Разделение по промежуткам
Продолжительность промежутка : 40 мс. (1,00 видеокадр)
Время предзагрузки промежутка : 500 мс.
ServiceKind/String : Complete Main

Когда раздача ведётся путём добавления новых серий, при каждом добавлении создётся новый торрент. Чтобы начать докачку новой серии, пользователям необходимо сделать следующее:
(1) остановить скачивание,
(2) удалить старый торрент у себя из клиента (старые серии удалять не надо),
(3) скачать новый торрент и запустить его у себя в клиенте вместо старого, при этом указать клиенту путь в старую папку, куда и должно происходить скачивание новых серий.
Ваш клиент при этом должен произвести хеширование (проверку) старой папки (если не производит сам - помогите ему сделать это), и будет докачивать только те серии, которых у вас ещё нет. Старые серии при этом не удаляются, а продолжают раздаваться!
Eсли вы уже удалили старые серии, то предотвратить повторную закачку старых серий можно, отжав галочку в соответсвующих местах при запуске нового торрента. По возможности, желательно не удалять старые серии как можно дольше, чтобы релизёр не столько продолжал раздавать старые серии, а смог сконцентрироваться на новых.
piratbit.org



Скачать Бонус через торрент https://c.radikal.ru/c07/1809/2a/3a043a08a25c.jpg Скачать фильм Бонус через торрент бесплантно в хорошем качестве Описание: Юный рэпер из провинции по прозвищу Бонус отправляется покорять столицу, где влюбляется в дочь известного бизнесмена. Но Москва ... 8.6 10 5
Info! Золотая раздача, скачанное не засчитывается.
Торрент: Зарегистрирован [2018-12-19 22:37] · скачан: 109 раз
Статус: √ проверено
Размер: 8.19 GB
Как cкачать? Как скачать Бонус через торрент | UTorrent

% Раздел Тема Автор DL S | L
Зарубежные сериалы [ 85.05 GB ] Леденящие душу Сабрины / Chilling Adventures of Sabrina / Сезон: 1 / Серии: 1-10 из 10 + Бонус [2018 WEBRip-HEVC 2160p] MVO [LostFilm] bober100 Скачать
1 | 0
TNT serials [ 18.59 GB ] Бонус / Сезон: 1 / Серии : 1-16 из 16 [2018 музыка WEB-DL 720p] bober100 Скачать
1 | 0
TNT serials [ 7.95 GB ] Бонус / Сезон: 1 / Серии : 1-16 из 16 [2018 музыка WEB-DLRip-AVC] bober100 Скачать
1 | 0
TNT serials [ 5.34 GB ] Бонус / Сезон: 1 / Серии: [2018 музыка WEBRip-AVC] [Русский] R.G.Generalfilm White Smoke Скачать
1 | 0
TNT serials [ 22.76 GB ] Бонус / Сезон: 1 / Серии : 1-16 из 16 [2018 музыка WEB-DL 1080p] bober100 Скачать
1 | 0
Мультсериалы [ 6.7 GB ] Шиммер и Шайн / Shimmer and Shine / Сезон 1 / Серии: 1-19 из 19 + бонус [2015-2016 мультфильм HDTVRip-AVC by keeper.52] DU keeper.52 Скачать
1 | 0
Мультсериалы [ 6.73 GB ] Шиммер и Шайн / Shimmer and Shine / Сезон 1 / Серии: 1-19 из 19 + бонус [2015-2016 мультфильм HDTVRip by keeper.52] DUB keeper.52 Скачать
1 | 0


Последний раз редактировалось: bober100 (2018-11-29 19:47), всего редактировалось 2 раз(а)

28-11-2019 20:33  

Отключить всю рекламу на сайте

25-10-2018 00:54 Бонус Скачать торрент  

9 серия выйдет 1 ноября, классный сериал, смотрю на одном дыхании.
З.Ы. Ненавистники рэпа - можете не смотреть, вам он точно не понравится)piratbit.org



25-10-2018 04:32 Бонус Скачать торрент  

а кто это такие-все эти типа актёры под номерами? piratbit.org



25-10-2018 04:32 Бонус Скачать торрент  

Arron_H1De писал(а):

9 серия выйдет 1 ноября, классный сериал, смотрю на одном дыхании.
З.Ы. Ненавистники рэпа - можете не смотреть, вам он точно не понравится)

спасибо за совет по поводу репа.Смотреть не буду. piratbit.org



12-11-2018 08:22 Бонус Скачать торрент  

когда добавите 9 и 10 серию?piratbit.org



    Дорогой пользователь! Огромная просьба, поблагодарите релизера, оцените раздачу и оставьте свои комментарий, если Вы скачали Бонус через торрент бесплатно! Внесите свою лепту в развитие PiratBit!
    Комментировать посты могут только пользователи прошедшие не сложную регистрацию
    Показать сообщения:    

    Бонус через торрент
    Скачать бесплатно Бонус
    Бонус скачать торрент
    Бонус смотреть онлайн
    Cкачать фильм Бонус бесплатно
    Бонус скачать торрент в хорошем качестве
    Бонус смотреть онлайн бесплатно в хорошем качестве


    Вы не можете начинать темы
    Вы не можете отвечать на сообщения
    Вы не можете редактировать свои сообщения
    Вы не можете удалять свои сообщения
    Вы не можете голосовать в опросах
    Вы не можете прикреплять файлы к сообщениям
    Вы можете скачивать файлы