Доктор Стрэндж

Лицензия

Добыча

MVO

Дом дракона

1 сезон

Тор

Лицензия

Мэверик

Лицензия

Там, где раки поют

MVO

Властелин колец

1 сезон

Ultimate

pack

Рекомендуем

30

Repack

ВАЖНО

ВАЖНО

Ghostwire

RePack

jed

RePack

nioh2

RePack

RDR2

RePack

NEED FOR SPEED™ PAYBACK

RePack

скачать торрент

Кинопоиск HD

Острые козырьки 6 сезон

6 сезон

FAR CRY 6

RePack

скачать торрент

Лицензия

скачать торрент

MVO

1

1 сезон

скачать торрент

1 сезон

скачать торрент

Лицензия

  

Битва в пути (Владимир Басов) [1961, СССР, драма, DVDRip-AVC от AVP Studio]

Битва в пути через торрент piratbit.org

Размер: 2.18 GB | Добавлен: 4 года назад | Торрент скачан:22 раза
Смотреть онлайн Битва в пути | Скачать   

25-09-2018 11:09 Битва в пути Скачать торрент  

Битва в пути
Страна: СССР
Производство: Мосфильм

Жанр: драма
Год выпуска: 1961
Продолжительность: 03:00:22

Перевод: Не требуется
Cубтитры: нет
Оригинальная аудиодорожка: русский

Режиссер: Владимир Басов

В ролях:
Михаил Ульянов, Наталья Фатеева, Михаил Названов, Феликс Яворский, Людмила Крылова, Владимир Трещалов, Николай Сергеев, Александр Хвыля, Олег Мокшанцев, Михаил Туманишвили, Надежда Федосова, Иван Переверзев, Татьяна Махова, Вася Свидетелев, Наташа Чечёткина, Владимир Андреев, Нина Меньшикова, Наталья Крачковская, Инга Будкевич, Юрий Волынцев, Леонид Чубаров, Серафим Зайцев, Игорь Безяев, Николай Парфёнов, Пётр Мухин, Пётр Щербаков, Николай Граббе...
Об актёрах подробней

Описание:
По одноименному роману Галины Николаевой.
На крупный тракторный завод, ранее выпускавший танки, возглавляемый «красным директором сталинской закалки» Семёном Вальганом (Михаил Названов), назначен новый главный инженер Дмитрий Бахирев (Михаил Ульянов). Приход этого человека — жёсткого, прямого и бескомпромиссного — рождает множество конфликтов, из которых он в конце концов — после позорного изгнания и триумфального возвращения — выходит победителем и занимает кресло уволенного Вальгана.

Источник: DVD9 R5
Качество видео: DVDRip-AVC
Формат видео: MKV

Видео: 712->760х570 (4:3), 25,000 кадров/сек, H264 ~ 1534 kbps avg, 0.155 bit/pixel
Аудио: 48 kHz, Dolby Digital AC3 2.0, 192 kbps

Раздача от:
Общее
Полное имя : Bitva.v.puti.1961.DVDRip-AVC_[New-team]_by_AVP_Studio.mkv
Формат : Matroska
Версия формата : Version 2
Размер файла : 2,18 Гбайт
Продолжительность : 3 ч. 0 м.
Общий поток : 1728 Кбит/сек
Дата кодирования : UTC 2018-09-24 12:54:17
Программа кодирования : mkvmerge v6.1.0 ('Old Devil') built on Mar 4 2013 09:10:42
Библиотека кодирования : libebml v1.3.0 + libmatroska v1.4.0

Видео
Идентификатор : 1
Формат : AVC
Формат/Информация : Advanced Video Codec
Профиль формата : High@L4.1
Настройки формата : CABAC / 10 Ref Frames
Параметр CABAC формата : Да
Параметр RefFrames формата : 10 кадров
Идентификатор кодека : V_MPEG4/ISO/AVC
Продолжительность : 3 ч. 0 м.
Битрейт : 1534 Кбит/сек
Ширина : 712 пикселей
Высота : 570 пикселей
Соотношение сторон : 4:3
Режим частоты кадров : Постоянный
Частота кадров : 25,000 кадров/сек
Цветовое пространство : YUV
Субдискретизация насыщенности : 4:2:0
Битовая глубина : 8 бит
Тип развёртки : Прогрессивная
Бит/(Пиксели*Кадры) : 0.151
Размер потока : 1,89 Гбайт (87%)
Библиотека кодирования : x264 core 157 r2932 303c484
Настройки программы : cabac=1 / ref=10 / deblock=1:-2:-1 / analyse=0x3:0x113 / me=umh / subme=10 / psy=1 / psy_rd=1.00:0.00 / mixed_ref=1 / me_range=32 / chroma_me=1 / trellis=2 / 8x8dct=1 / cqm=0 / deadzone=21,11 / fast_pskip=1 / chroma_qp_offset=-2 / threads=6 / lookahead_threads=1 / sliced_threads=0 / nr=0 / decimate=0 / interlaced=0 / bluray_compat=0 / constrained_intra=0 / bframes=8 / b_pyramid=2 / b_adapt=2 / b_bias=0 / direct=3 / weightb=1 / open_gop=0 / weightp=2 / keyint=250 / keyint_min=25 / scenecut=40 / intra_refresh=0 / rc=2pass / mbtree=0 / bitrate=1534 / ratetol=1.0 / qcomp=0.60 / qpmin=0 / qpmax=69 / qpstep=4 / cplxblur=20.0 / qblur=0.5 / ip_ratio=1.40 / pb_ratio=1.30 / aq=1:1.00
Default : Да
Forced : Нет

Аудио
Идентификатор : 2
Формат : AC-3
Формат/Информация : Audio Coding 3
Коммерческое название : Dolby Digital
Идентификатор кодека : A_AC3
Продолжительность : 3 ч. 0 м.
Вид битрейта : Постоянный
Битрейт : 192 Кбит/сек
Каналы : 2 канала
Channel layout : L R
Частота : 48,0 КГц
Частота кадров : 31,250 кадров/сек (1536 SPF)
Битовая глубина : 16 бит
Метод сжатия : С потерями
Размер потока : 248 Мбайт (11%)
Default : Да
Forced : Нет



Скачать Битва в пути через торрент http://picplus.ru/img/1809/25/97c5d29b.png Скачать, смотреть онлайн Битва в пути бесплантно в хорошем качестве Описание:По одноименному роману Галины Николаевой.На крупный тракторный завод, ранее выпускавший танки, возглавляемый «красным директором ... 5 10 1
Info! Золотая раздача, скачанное не засчитывается.
Торрент: Зарегистрирован [2018-09-25 11:09] · скачан: 22 раз
Статус: √ проверено
Размер: 2.18 GB
Как cкачать? Как скачать Битва в пути через торрент | UTorrent

% Раздел Тема Автор DL S | L
Кино СССР [ 2.18 GB ] Битва в пути | | DVDRip от AVP Studio AVP Studio Скачать
1 | 0

28-11-2019 20:33  

Отключить вcю реклaмy на сайте

    Дорогой пользователь! Огромная просьба, поблагодарите релизера, оцените раздачу и оставьте свои комментарий, если Вы скачали Битва в пути через торрент бесплатно!!
    Комментировать посты могут только пользователи прошедшие не сложную регистрацию
    Показать сообщения:    


    Битва в пути через торрент
    Скачать бесплатно Битва в пути
    Битва в пути скачать торрент
    Битва в пути смотреть онлайн
    Cкачать фильм Битва в пути бесплатно
    Битва в пути скачать торрент в хорошем качестве
    Битва в пути смотреть онлайн бесплатно в хорошем качестве
    Вы не можете начинать темы
    Вы не можете отвечать на сообщения
    Вы не можете редактировать свои сообщения
    Вы не можете удалять свои сообщения
    Вы не можете голосовать в опросах
    Вы не можете прикреплять файлы к сообщениям
    Вы можете скачивать файлы