Достать ножи: Стеклянная луковица

MVO

Добыча

Дубляж

Уэнсдэй

1 сезон

Тор

Дубляж

13 клиническая

1 сезон

Жестокая ночь

MVO

Одни из нас

1 сезон

Deluxe

pack

Рекомендуем

30

Пиратка

ВАЖНО

ВАЖНО

Ghostwire

Пиратка

jed

RePack

nioh2

RePack

RDR2

RePack

NEED FOR SPEED™ PAYBACK

RePack

скачать торрент

Кинопоиск HD

Острые козырьки 6 сезон

6 сезон

FAR CRY 6

RePack

скачать торрент

Лицензия

скачать торрент

MVO

1

1 сезон

скачать торрент

1 сезон

скачать торрент

Лицензия

  

Каратель / The Punisher (Джонатан Хенсли) [2004, боевик, триллер, драма, UHD BDRemux 2160p] Дубляж + MVO + DVO + 2xAVO

Каратель через торрент piratbit.org

Размер: 68.49 GB | Добавлен: 4 года 4 мес. назад | Торрент скачан:25 раз
Смотреть онлайн | Скачать | Поддержите нас   

26-09-2018 02:55 Каратель Скачать торрент  

Каратель / The Punisher«Он восстал из мёртвых, чтобы нести правосудие»
Год выпуска: 2004
Страна: США, Германия
Жанр: боевик, триллер, драма, криминал, приключения
Продолжительность: 02:03:33
Перевод: Дублированный, профессиональный многоголосый, профессиональный двухголосый, авторский
Субтитры: Русские, английские
Режиссер: Джонатан Хенсли
В ролях:

Томас Джейн (Frank Castle), Джон Траволта (Howard Saint), Уилл Пэттон (Quentin Glass), Рой Шайдер (Frank Castle Sr.), Лаура Хэрринг (Livia Saint), Бен Фостер (Spacker Dave), Ребекка Ромейн (Joan), Омар Авила (Joe Toro), Джеймс Карпинелло (Bobby Saint), Марк Колли (Harry Heck), Расселл Дархэм Комегис (Tattooed Mike), Энтони Короне (T.J.)
Описание:
Фрэнк Кастл - агент ФБР под прикрытием, который после долгих лет службы оперативником должен наконец-то получить кабинетную должность и начать спокойную жизнь со своей женой и детьми. Однако ему предстоит пережить страшное потрясение - во время выполнения последнего спецзадания прямо на его глазах от рук преступника погибает вся его семья. Несмотря на душевную боль, Фрэнк начинает войну против тех, кто лишил его самого дорогого в жизни.
Рейтинг:

MPAA: R - Лицам до 17 лет обязательно присутствие взрослого
Качество: UHD BDRemux 2160p
Формат: MKV
Видео: HEVC, HDR, 66700 Кбит/с, 3840x2160
Аудио#1: Russian: 48 kHz, AC3, 3/2 (L,C,R,l,r) + LFE ch, ~640 kbps avg |Дубляж, Blu-Ray EUR|
Аудио#2: Russian: 48 kHz/24-bit, DTS-HD MA 5.1, ~ 2189 kbps avg |Многоголосый закадровый, Киномания|
Аудио#3: Russian: 48 kHz/24-bit, DTS-HD MA 5.1, ~ 2187 kbps |Двухголосый закадровый, Tycoon|
Аудио#4: Russian: 48 kHz/24-bit, DTS-HD MA 5.1, ~ 2189 kbps |Одноголосый закадровый, Королев|
Аудио#5: Russian: 48 kHz, AC3, 2/0 (L,R), ~192 kbps avg |Одноголосый закадровый, Карповский|
Аудио#6: Ukrainian: 48 kHz, AC3, 2/0 (L,R), ~192 kbps avg |Многоголосый закадровый, ICTV|
Аудио#7: English: 48 kHz/24-bit, TrueHD 7.1 Dolby Atmos, ~ 4357 kbps avg
Аудио#8: English: 48 kHz, AC3, 3/2 (L,C,R,l,r) + LFE ch, ~640
Навигация по главам: есть
General
Unique ID : 83103537671266619651151187349291026884 (0x3E8528BF4551EEF7E6293A87733249C4)
Complete name : F:\Video1\The.Punisher.2004.2160p.BDRemux.TeamHD.mkv
Format : Matroska
Format version : Version 4 / Version 2
File size : 68.5 GiB
Duration : 2 h 3 min
Overall bit rate mode : Variable
Overall bit rate : 79.4 Mb/s
Movie name : The Punisher (2004) TeamHD-селезень
Encoded date : UTC 2018-09-25 11:39:24
Writing application : mkvmerge v23.0.0 ('The Bride Said No') 64-bit
Writing library : libebml v1.3.6 + libmatroska v1.4.9

Video
ID : 1
Format : HEVC
Format/Info : High Efficiency Video Coding
Commercial name : HDR10
Format profile : Main 10@L5.1@High
Codec ID : V_MPEGH/ISO/HEVC
Duration : 2 h 3 min
Bit rate : 66.7 Mb/s
Width : 3 840 pixels
Height : 2 160 pixels
Display aspect ratio : 16:9
Frame rate mode : Constant
Frame rate : 23.976 (24000/1001) FPS
Color space : YUV
Chroma subsampling : 4:2:0 (Type 2)
Bit depth : 10 bits
Bits/(Pixel*Frame) : 0.335
Stream size : 57.6 GiB (84%)
Language : English
Default : Yes
Forced : No
Color range : Limited
Color primaries : BT.2020
Transfer characteristics : PQ
Matrix coefficients : BT.2020 non-constant
Mastering display color pri : Display P3
Mastering display luminance : min: 0.0001 cd/m2, max: 1000 cd/m2
Maximum Content Light Level : 1000 cd/m2
Maximum Frame-Average Light : 958 cd/m2

Audio #1
ID : 2
Format : AC-3
Format/Info : Audio Coding 3
Commercial name : Dolby Digital
Codec ID : A_AC3
Duration : 2 h 3 min
Bit rate mode : Constant
Bit rate : 640 kb/s
Channel(s) : 6 channels
Channel layout : L R C LFE Ls Rs
Sampling rate : 48.0 kHz
Frame rate : 31.250 FPS (1536 SPF)
Bit depth : 16 bits
Compression mode : Lossy
Stream size : 566 MiB (1%)
Title : Дубляж [license]
Language : Russian
Service kind : Complete Main
Default : Yes
Forced : Yes

Audio #2
ID : 3
Format : DTS XLL
Format/Info : Digital Theater Systems
Commercial name : DTS-HD Master Audio
Codec ID : A_DTS
Duration : 2 h 3 min
Bit rate mode : Variable
Bit rate : 2 189 kb/s
Channel(s) : 6 channels
Channel layout : C L R Ls Rs LFE
Sampling rate : 48.0 kHz
Frame rate : 93.750 FPS (512 SPF)
Bit depth : 16 bits
Compression mode : Lossless
Stream size : 1.89 GiB (3%)
Title : MVO [Киномания]
Language : Russian
Default : No
Forced : No

Audio #3
ID : 4
Format : DTS XLL
Format/Info : Digital Theater Systems
Commercial name : DTS-HD Master Audio
Codec ID : A_DTS
Duration : 2 h 3 min
Bit rate mode : Variable
Bit rate : 2 187 kb/s
Channel(s) : 6 channels
Channel layout : C L R Ls Rs LFE
Sampling rate : 48.0 kHz
Frame rate : 93.750 FPS (512 SPF)
Bit depth : 16 bits
Compression mode : Lossless
Stream size : 1.89 GiB (3%)
Title : DVO [Tycoon]
Language : Russian
Default : No
Forced : No

Audio #4
ID : 5
Format : DTS XLL
Format/Info : Digital Theater Systems
Commercial name : DTS-HD Master Audio
Codec ID : A_DTS
Duration : 2 h 3 min
Bit rate mode : Variable
Bit rate : 2 189 kb/s
Channel(s) : 6 channels
Channel layout : C L R Ls Rs LFE
Sampling rate : 48.0 kHz
Frame rate : 93.750 FPS (512 SPF)
Bit depth : 16 bits
Compression mode : Lossless
Stream size : 1.89 GiB (3%)
Title : VO [Королев]
Language : Russian
Default : No
Forced : No

Audio #5
ID : 6
Format : AC-3
Format/Info : Audio Coding 3
Commercial name : Dolby Digital
Codec ID : A_AC3
Duration : 2 h 3 min
Bit rate mode : Constant
Bit rate : 192 kb/s
Channel(s) : 2 channels
Channel layout : L R
Sampling rate : 48.0 kHz
Frame rate : 31.250 FPS (1536 SPF)
Bit depth : 16 bits
Compression mode : Lossy
Stream size : 170 MiB (0%)
Title : VO [Карповский]
Language : Russian
Service kind : Complete Main
Default : No
Forced : No

Audio #6
ID : 7
Format : AC-3
Format/Info : Audio Coding 3
Commercial name : Dolby Digital
Codec ID : A_AC3
Duration : 2 h 3 min
Bit rate mode : Constant
Bit rate : 192 kb/s
Channel(s) : 2 channels
Channel layout : L R
Sampling rate : 48.0 kHz
Frame rate : 31.250 FPS (1536 SPF)
Bit depth : 16 bits
Compression mode : Lossy
Stream size : 170 MiB (0%)
Title : MVO [ICTV]
Language : Ukrainian
Service kind : Complete Main
Default : No
Forced : No

Audio #7
ID : 8
Format : MLP FBA 16-ch
Format/Info : Meridian Lossless Packing FBA with 16-channel presentation
Commercial name : TrueHD with Dolby Atmos
Codec ID : A_TRUEHD
Duration : 2 h 3 min
Bit rate mode : Variable
Bit rate : 4 353 kb/s
Maximum bit rate : 7 194 kb/s
Channel(s) : 8 channels
Channel layout : L R C LFE Ls Rs Lb Rb
Sampling rate : 48.0 kHz
Frame rate : 1 200.000 FPS (40 SPF)
Compression mode : Lossless
Stream size : 3.76 GiB (5%)
Title : Original
Language : English
Default : No
Forced : No
Number of dynamic objects : 15
Bed channel count : 1 channel
Bed channel configuration : LFE

Audio #8
ID : 9
Format : AC-3
Format/Info : Audio Coding 3
Commercial name : Dolby Digital
Codec ID : A_AC3
Duration : 2 h 3 min
Bit rate mode : Constant
Bit rate : 640 kb/s
Channel(s) : 6 channels
Channel layout : L R C LFE Ls Rs
Sampling rate : 48.0 kHz
Frame rate : 31.250 FPS (1536 SPF)
Bit depth : 16 bits
Compression mode : Lossy
Stream size : 566 MiB (1%)
Language : English
Service kind : Complete Main
Default : No
Forced : No

Text #1
ID : 10
Format : UTF-8
Codec ID : S_TEXT/UTF8
Codec ID/Info : UTF-8 Plain Text
Duration : 1 h 6 min
Bit rate : 0 b/s
Count of elements : 11
Stream size : 425 Bytes (0%)
Title : Forced
Language : Russian
Default : Yes
Forced : Yes

Text #2
ID : 11
Format : UTF-8
Codec ID : S_TEXT/UTF8
Codec ID/Info : UTF-8 Plain Text
Duration : 1 h 54 min
Bit rate : 54 b/s
Count of elements : 887
Stream size : 45.7 KiB (0%)
Title : Full
Language : Russian
Default : No
Forced : No

Text #3
ID : 12
Format : UTF-8
Codec ID : S_TEXT/UTF8
Codec ID/Info : UTF-8 Plain Text
Duration : 2 h 1 min
Bit rate : 36 b/s
Count of elements : 1141
Stream size : 32.2 KiB (0%)
Title : Full
Language : English
Default : No
Forced : No

Menu
00:00:00.000 : en:Chapter 1
00:06:19.170 : en:Chapter 2
00:11:01.828 : en:Chapter 3
00:19:25.623 : en:Chapter 4
00:24:11.784 : en:Chapter 5
00:35:23.830 : en:Chapter 6
00:43:16.010 : en:Chapter 7
00:48:33.869 : en:Chapter 8
00:55:21.276 : en:Chapter 9
01:07:20.453 : en:Chapter 10
01:14:36.222 : en:Chapter 11
01:20:29.158 : en:Chapter 12
01:27:54.102 : en:Chapter 13
01:34:19.904 : en:Chapter 14



Скачать Каратель через торрент https://a.radikal.ru/a32/1809/39/9842b85f3a01.png Скачать, смотреть онлайн Каратель бесплантно в хорошем качестве Описание: Фрэнк Кастл - агент ФБР под прикрытием, который после долгих лет службы оперативником должен наконец-то получить кабинетную ... 10 10 2
Торрент: Зарегистрирован [2018-09-26 02:55] · скачан: 25 раз
Статус: √ проверено
Размер: 68.49 GB
Как cкачать? Как скачать Каратель через торрент | UTorrent

28-11-2019 20:33  


Отключить вcю реклaмy на сайте, в т.ч. и в плеере онлайн просмотра!

    Дорогой пользователь! Огромная просьба, поблагодарите релизера, оцените раздачу и оставьте свои комментарий, если Вы скачали Каратель через торрент бесплатно!!
    Комментировать посты могут только пользователи прошедшие не сложную регистрацию
    Показать сообщения:    


    Каратель через торрент
    Скачать бесплатно Каратель
    Каратель скачать торрент
    Каратель смотреть онлайн
    Cкачать фильм Каратель бесплатно
    Каратель скачать торрент в хорошем качестве
    Каратель смотреть онлайн бесплатно в хорошем качестве
    Вы не можете начинать темы
    Вы не можете отвечать на сообщения
    Вы не можете редактировать свои сообщения
    Вы не можете удалять свои сообщения
    Вы не можете голосовать в опросах
    Вы не можете прикреплять файлы к сообщениям
    Вы можете скачивать файлы
    Каратель / The Punisher [2004, боевик, триллер, драма, UHD BDRemux 2160p] Дубляж + MVO + DVO + 2xAVO смотреть онлайн, скачать торрент picoco.icu