Лицензия

MVO

1

1 сезон

Лицензия

Лицензия

13

MVO

1 сезон

Deluxe Edition

pack

Рекомендуем

30

Repack

ВАЖНО

ВАЖНО

Ghostwire

RePack

jed

RePack

fifa19

RePack

RDR2

RePack

NEED FOR SPEED™ PAYBACK

RePack

Кинопоиск HD

 Острые козырьки 6 сезон

6 сезон

FAR CRY 6

RePack

Лицензия

MVO

1

1 сезон

1 сезон

Лицензия

  

Человек ниоткуда (Эльдар Рязанов) [1961, СССР, фантастика, комедия, DVDRip от AVP Studio]

Человек ниоткуда через торрент piratbit.org

Размер: 745 MB | Добавлен: 4 года назад | Торрент скачан:52 раза
Смотреть онлайн Человек ниоткуда | Скачать   

27-09-2018 08:12 Человек ниоткуда Скачать торрент  

Человек ниоткуда
Страна: СССР
Производство: Мосфильм

Жанр: фантастика, комедия
Год выпуска: 1961
Продолжительность: 01:16:44

Перевод: Не требуется
Cубтитры: нет
Оригинальная аудиодорожка: русский

Режиссер: Эльдар Рязанов

В ролях:
Сергей Юрский, Юрий Яковлев, Анатолий Папанов, Людмила Гурченко, Нинель Мышкова, Анатолий Адоскин, Владимир Муравьёв, Юрий Белов, Антоний Ходурский...
Об актёрах подробней

Описание:
Молодой геолог Поражаев (Юрий Яковлев) во время одной из экспедиций находит снежного человека из племени тапи, которому он дает имя Чудак (Сергей Юрский). Приехав в Москву, геолог и его подопечный оказываются в центре самых невероятных приключений.

Источник: DVD5 R5
Качество видео: DVDRip
Формат видео: AVI

Видео: 672х496 (4:3), 25 fps, XviD ~ 1156 kbps avg, 0.139 bit/pixel
Аудио: 48 kHz, Dolby Digital AC3 2.0, 192 kbps

Раздача от:
Общее
Полное имя : CHelovek.niotkuda.1961.DVDRip_[New-team]_by_AVP_Studio.avi
Формат : AVI
Формат/Информация : Audio Video Interleave
Размер файла : 745 Мбайт
Продолжительность : 1 ч. 16 м.
Общий поток : 1357 Кбит/сек
Программа кодирования : VirtualDubMod 1.5.10.3 | www.virtualdub-fr.org || (build 2550/release)
Библиотека кодирования : VirtualDubMod build 2550/release

Видео
Идентификатор : 0
Формат : MPEG-4 Visual
Профиль формата : Advanced Simple@L5
Настройки формата : BVOP1 / Custom Matrix
Параметр BVOP формата : 1
Параметр QPel формата : Нет
Параметр GMC формата : Без точки перехода
Параметр матрицы формата : Выборочная
Идентификатор кодека : XVID
Идентификатор кодека/Подсказка : XviD
Продолжительность : 1 ч. 16 м.
Битрейт : 1156 Кбит/сек
Ширина : 672 пикселя
Высота : 496 пикселей
Соотношение сторон : 4:3
Частота кадров : 25,000 кадров/сек
Цветовое пространство : YUV
Субдискретизация насыщенности : 4:2:0
Битовая глубина : 8 бит
Тип развёртки : Прогрессивная
Метод сжатия : С потерями
Бит/(Пиксели*Кадры) : 0.139
Размер потока : 634 Мбайт (85%)
Библиотека кодирования : XviD 73

Аудио
Идентификатор : 1
Формат : AC-3
Формат/Информация : Audio Coding 3
Коммерческое название : Dolby Digital
Идентификатор кодека : 2000
Продолжительность : 1 ч. 16 м.
Вид битрейта : Постоянный
Битрейт : 192 Кбит/сек
Каналы : 2 канала
Channel layout : L R
Частота : 48,0 КГц
Частота кадров : 31,250 кадров/сек (1536 SPF)
Битовая глубина : 16 бит
Метод сжатия : С потерями
Размер потока : 105 Мбайт (14%)
Выравнивание : Разделение по промежуткам
Продолжительность промежутка : 40 мс. (1,00 видеокадр)
Время предзагрузки промежутка : 500 мс



Скачать Человек ниоткуда через торрент http://picplus.ru/img/1809/27/c6aa91c7.png Скачать, смотреть онлайн Человек ниоткуда бесплантно в хорошем качестве Описание:Молодой геолог Поражаев (Юрий Яковлев) во время одной из экспедиций находит снежного человека из племени тапи, которому он дает ... 5 10 1
Info! Золотая раздача, скачанное не засчитывается.
Торрент: Зарегистрирован [2018-09-27 08:12] · скачан: 52 раз
Статус: √ проверено
Размер: 745 MB
Как cкачать? Как скачать Человек ниоткуда через торрент | UTorrent

% Раздел Тема Автор DL S | L
Кино СССР [ 1.09 GB ] Человек ниоткуда | | DVDRip-AVC от AVP Studio AVP Studio Скачать
1 | 0

28-11-2019 20:33  

Отключить вcю реклaмy на сайте

27-09-2018 10:32 Человек ниоткуда Скачать торрент  

Ну фильм так себе



    Дорогой пользователь! Огромная просьба, поблагодарите релизера, оцените раздачу и оставьте свои комментарий, если Вы скачали Человек ниоткуда через торрент бесплатно!!
    Комментировать посты могут только пользователи прошедшие не сложную регистрацию
    Показать сообщения:    


    Человек ниоткуда через торрент
    Скачать бесплатно Человек ниоткуда
    Человек ниоткуда скачать торрент
    Человек ниоткуда смотреть онлайн
    Cкачать фильм Человек ниоткуда бесплатно
    Человек ниоткуда скачать торрент в хорошем качестве
    Человек ниоткуда смотреть онлайн бесплатно в хорошем качестве
    Вы не можете начинать темы
    Вы не можете отвечать на сообщения
    Вы не можете редактировать свои сообщения
    Вы не можете удалять свои сообщения
    Вы не можете голосовать в опросах
    Вы не можете прикреплять файлы к сообщениям
    Вы можете скачивать файлы