Достать ножи: Стеклянная луковица

MVO

Добыча

Дубляж

Уэнсдэй

1 сезон

Тор

Дубляж

13 клиническая

1 сезон

Жестокая ночь

MVO

Одни из нас

1 сезон

Deluxe

pack

Рекомендуем

30

Пиратка

ВАЖНО

ВАЖНО

Ghostwire

Пиратка

jed

RePack

nioh2

RePack

RDR2

RePack

NEED FOR SPEED™ PAYBACK

RePack

скачать торрент

Кинопоиск HD

Острые козырьки 6 сезон

6 сезон

FAR CRY 6

RePack

скачать торрент

Лицензия

скачать торрент

MVO

1

1 сезон

скачать торрент

1 сезон

скачать торрент

Лицензия

  

Каратель: Территория войны / Punisher: War Zone (Лекси Александр) [2008, боевик, триллер, драма, UHD BDRemux 2160p] 2xMVO + 2xAVO

Каратель: Территория войны через торрент piratbit.org

Размер: 52.58 GB | Добавлен: 4 года 4 мес. назад | Торрент скачан:9 раз
Смотреть онлайн | Скачать | Поддержите нас   

27-09-2018 12:11 Каратель: Территория войны Скачать торрент  

Каратель: Территория войны / Punisher: War Zone«Vengeance has a name»
Год выпуска: 2008
Страна: США, Канада, Германия
Жанр: боевик, триллер, драма, криминал
Продолжительность: 01:42:42
Перевод: Профессиональный многоголосый, авторский
Субтитры: Russian (Строев, Киномания), English
Режиссер: Лекси Александр
В ролях:

Рэй Стивенсон (Frank Castle), Доминик Уэст (Billy / Jigsaw), Даг Хатчисон (Loony Bin Jim), Колин Сэлмон (Paul Budiansky), Уэйн Найт (Micro), Дэш Майок (Martin Soap), Джули Бенц (Angela), Стефани Янушаускас (Grace), Марк Камачо (Pittsy), Романо Орцари (Nicky), Керам Малики-Санчес (Ink), Ларри Дэй (Agent Miller)
Описание:
Жесткий, брутальный и беспощадный вершитель порядка Фрэнк Кастл по прозвищу Каратель ведет настоящую войну с миром организованной преступности. Он не знает жалости и компромиссов и собственными руками отправляет плохих парней в ад, либо за железную решетку. Его методы продиктованы местью, а действия жаждой справедливости. На этот раз он схлестнется со своим главным противником, мега-маньяком - Джигсо, восседающим на криминальном троне Нью-Йорка и управляющим целой армией психопатов и головорезов. С другой стороны ФБР создает свой отряд, призванный пресечь сверхмощную атаку Карателя. Зона военных действий определена! Но это только начало!
Рейтинг:

MPAA: R - Лицам до 17 лет обязательно присутствие взрослого
Качество: UHD BDRemux 2160p
Формат: MKV
Видео: HEVC, HDR, 63597 Кбит/с, 3840x2160, 23.976 Кадр/с
Аудио 1: DTS, 3/2 (L,C,R,l,r) + LFE ch, 1510 kbps avg Русский (Лицензия_многоголосый)
Аудио 2: DTS, 3/2 (L,C,R,l,r) + LFE ch, 1510 kbps avg Русский (Д. Строев_присутствует ненормативная лексика)
Аудио 3: AC3 Dolby Digital, 3/2 (L,C,R,l,r) + LFE ch, 384.00 kbps avg Русский (Киномания_многоголосый)
Аудио 4: AC3 Dolby Digital, 3/2 (L,C,R,l,r) + LFE ch, 384.00 kbps avg Русский (Ю. Немахов_присутствует ненормативная лексика)
Аудио 5: Atmos/TrueHD Audio, 7/1 (L,C,R,l,r) + LFE ch, 5207 kbps avg Оригинал (английский)
Навигация по главам: есть

Общее
Уникальный идентификатор : 184901264114227206042851103622876264669 (0x8B1AB0295EDB9D47B5A5720802BE78DD)
Полное имя : G:\Punisher.War.Zone.2008.2160p.BluRay.BDRemux.2160p.10bit.HEVC.HDR.4K.x265.Master5.mkv
Формат : Matroska
Версия формата : Version 4 / Version 2
Размер файла : 52,6 Гбайт
Продолжительность : 1 ч. 42 м.
Режим общего битрейта : Переменный
Общий поток : 73,3 Мбит/сек
Название фильма : Punisher.War.Zone.2008.2160p.BluRay.BDRemux.2160p.10bit.HEVC.HDR.4K.x265.Master5
Дата кодирования : UTC 2018-09-27 05:45:34
Программа кодирования : mkvmerge v7.9.0 ('Birds') 64bit
Библиотека кодирования : libebml v1.3.1 + libmatroska v1.4.2

Видео
Идентификатор : 1
Формат : HEVC
Формат/Информация : High Efficiency Video Coding
Коммерческое название : HDR10
Профиль формата : Main 10@L5.1@High
Идентификатор кодека : V_MPEGH/ISO/HEVC
Продолжительность : 1 ч. 42 м.
Битрейт : 63,6 Мбит/сек
Ширина : 3840 пикселей
Высота : 2160 пикселей
Соотношение сторон : 16:9
Режим частоты кадров : Постоянный
Частота кадров : 23,976 (24000/1001) кадра/сек
Цветовое пространство : YUV
Субдискретизация насыщенности : 4:2:0 (Type 2)
Битовая глубина : 10 бит
Бит/(Пиксели*Кадры) : 0.320
Размер потока : 45,6 Гбайт (87%)
Заголовок : Punisher.War.Zone.2008.2160p.BluRay.BDRemux.2160p.10bit.HEVC.HDR.4K.x265.Master5
Default : Да
Forced : Нет
Цветовой диапазон : Limited
Основные цвета : BT.2020
Характеристики трансфера : PQ
Коэффициенты матрицы : BT.2020 non-constant
MasteringDisplay_ColorPrimaries : Display P3
MasteringDisplay_Luminance : min: 0.0001 cd/m2, max: 1000 cd/m2
MaxCLL : 1000 cd/m2
MaxFALL : 969 cd/m2

Аудио #1
Идентификатор : 2
Формат : DTS
Формат/Информация : Digital Theater Systems
Идентификатор кодека : A_DTS
Продолжительность : 1 ч. 42 м.
Вид битрейта : Постоянный
Битрейт : 1510 Кбит/сек
Каналы : 6 каналов
Расположение каналов : Front: L C R, Side: L R, LFE
Частота : 48,0 КГц
Частота кадров : 93,750 кадра/сек (512 SPF)
Битовая глубина : 24 бит
Метод сжатия : С потерями
Задержка видео : -9 мс.
Размер потока : 1,08 Гбайт (2%)
Заголовок : MVO
Язык : Russian
Default : Да
Forced : Нет

Аудио #2
Идентификатор : 3
Формат : DTS
Формат/Информация : Digital Theater Systems
Идентификатор кодека : A_DTS
Продолжительность : 1 ч. 42 м.
Вид битрейта : Постоянный
Битрейт : 1510 Кбит/сек
Каналы : 6 каналов
Расположение каналов : Front: L C R, Side: L R, LFE
Частота : 48,0 КГц
Частота кадров : 93,750 кадра/сек (512 SPF)
Битовая глубина : 24 бит
Метод сжатия : С потерями
Задержка видео : -9 мс.
Размер потока : 1,08 Гбайт (2%)
Заголовок : Строев
Язык : Russian
Default : Нет
Forced : Нет

Аудио #3
Идентификатор : 4
Формат : AC-3
Формат/Информация : Audio Coding 3
Идентификатор кодека : A_AC3
Продолжительность : 1 ч. 42 м.
Вид битрейта : Постоянный
Битрейт : 384 Кбит/сек
Каналы : 6 каналов
Расположение каналов : Front: L C R, Side: L R, LFE
Частота : 48,0 КГц
Частота кадров : 31,250 кадров/сек (1536 SPF)
Битовая глубина : 16 бит
Метод сжатия : С потерями
Задержка видео : -9 мс.
Размер потока : 282 Мбайт (1%)
Заголовок : MVO Киномания
Язык : Russian
ServiceKind/String : Complete Main
Default : Нет
Forced : Нет

Аудио #4
Идентификатор : 5
Формат : AC-3
Формат/Информация : Audio Coding 3
Идентификатор кодека : A_AC3
Продолжительность : 1 ч. 42 м.
Вид битрейта : Постоянный
Битрейт : 384 Кбит/сек
Каналы : 6 каналов
Расположение каналов : Front: L C R, Side: L R, LFE
Частота : 48,0 КГц
Частота кадров : 31,250 кадров/сек (1536 SPF)
Битовая глубина : 16 бит
Метод сжатия : С потерями
Задержка видео : -9 мс.
Размер потока : 282 Мбайт (1%)
Заголовок : Немахов
Язык : Russian
ServiceKind/String : Complete Main
Default : Нет
Forced : Нет

Аудио #5
Идентификатор : 6
Формат : TrueHD
Профиль формата : TrueHD+Atmos / TrueHD
Идентификатор кодека : A_TRUEHD
Продолжительность : 1 ч. 42 м.
Вид битрейта : Переменный
Битрейт : 5207 Кбит/сек
Максимальный битрейт : 8988 Кбит/сек
Каналы : Object Based / 8 каналов
Расположение каналов : Object Based / Front: L C R, Side: L R, Back: L R, LFE
Частота : / 48,0 КГц
Частота кадров : 1200,000 кадров/сек (40 SPF)
Метод сжатия : Без потерь
Размер потока : 3,74 Гбайт (7%)
Язык : English
Default : Нет
Forced : Нет

Аудио #6
Идентификатор : 7
Формат : AC-3
Формат/Информация : Audio Coding 3
Идентификатор кодека : A_AC3
Продолжительность : 1 ч. 42 м.
Вид битрейта : Постоянный
Битрейт : 640 Кбит/сек
Каналы : 6 каналов
Расположение каналов : Front: L C R, Side: L R, LFE
Частота : 48,0 КГц
Частота кадров : 31,250 кадров/сек (1536 SPF)
Битовая глубина : 16 бит
Метод сжатия : С потерями
Размер потока : 470 Мбайт (1%)
Язык : English
ServiceKind/String : Complete Main
Default : Нет
Forced : Нет

Текст #1
Идентификатор : 8
Формат : UTF-8
Идентификатор кодека : S_TEXT/UTF8
Идентификатор кодека/Информация : UTF-8 Plain Text
Продолжительность : 1 ч. 34 м.
Битрейт : 72 бит/сек
ElementCount : 888
Размер потока : 50,0 Кбайт (0%)
Заголовок : Строев
Язык : Russian
Default : Нет
Forced : Нет

Текст #2
Идентификатор : 9
Формат : UTF-8
Идентификатор кодека : S_TEXT/UTF8
Идентификатор кодека/Информация : UTF-8 Plain Text
Продолжительность : 1 ч. 34 м.
Битрейт : 68 бит/сек
ElementCount : 960
Размер потока : 47,6 Кбайт (0%)
Заголовок : Киномания
Язык : Russian
Default : Нет
Forced : Нет

Текст #3
Идентификатор : 10
Формат : UTF-8
Идентификатор кодека : S_TEXT/UTF8
Идентификатор кодека/Информация : UTF-8 Plain Text
Продолжительность : 1 ч. 34 м.
Битрейт : 42 бит/сек
ElementCount : 936
Размер потока : 29,2 Кбайт (0%)
Язык : English
Default : Нет
Forced : Нет

Меню
00:00:00.000 : :Chapter 1
00:06:41.901 : :Chapter 2
00:16:03.212 : :Chapter 3
00:21:24.241 : :Chapter 4
00:25:32.989 : :Chapter 5
00:30:41.923 : :Chapter 6
00:35:34.507 : :Chapter 7
00:44:06.268 : :Chapter 8
00:52:03.453 : :Chapter 9
00:57:41.291 : :Chapter 10
01:05:13.618 : :Chapter 11
01:12:28.427 : :Chapter 12
01:20:21.942 : :Chapter 13
01:26:36.524 : :Chapter 14
01:28:33.725 : :Chapter 15
01:32:45.017 : :Chapter 16



Скачать Каратель: Территория войны через торрент https://c.radikal.ru/c38/1809/48/813352f52618.jpg Скачать, смотреть онлайн Каратель: Территория войны бесплантно в хорошем качестве Описание: Жесткий, брутальный и беспощадный вершитель порядка Фрэнк Кастл по прозвищу Каратель ведет настоящую войну с миром организованной ... 10 10 1
Info! Золотая раздача, скачанное не засчитывается.
Торрент: Зарегистрирован [2018-09-27 12:11] · скачан: 9 раз
Статус: √ проверено
Размер: 52.58 GB
Как cкачать? Как скачать Каратель: Территория войны через торрент | UTorrent

% Раздел Тема Автор DL S | L
Ultra HD (UHD: 2K, 4K, 8K) [ 16.93 GB ] Каратель: Территория Войны / Punisher: War Zone | MVO | 2160p bober100 Скачать
1 | 0

28-11-2019 20:33  


Отключить вcю реклaмy на сайте, в т.ч. и в плеере онлайн просмотра!

    Дорогой пользователь! Огромная просьба, поблагодарите релизера, оцените раздачу и оставьте свои комментарий, если Вы скачали Каратель: Территория войны через торрент бесплатно!!
    Комментировать посты могут только пользователи прошедшие не сложную регистрацию
    Показать сообщения:    


    Каратель: Территория войны через торрент
    Скачать бесплатно Каратель: Территория войны
    Каратель: Территория войны скачать торрент
    Каратель: Территория войны смотреть онлайн
    Cкачать фильм Каратель: Территория войны бесплатно
    Каратель: Территория войны скачать торрент в хорошем качестве
    Каратель: Территория войны смотреть онлайн бесплатно в хорошем качестве
    Вы не можете начинать темы
    Вы не можете отвечать на сообщения
    Вы не можете редактировать свои сообщения
    Вы не можете удалять свои сообщения
    Вы не можете голосовать в опросах
    Вы не можете прикреплять файлы к сообщениям
    Вы можете скачивать файлы
    Каратель: Территория войны / Punisher: War Zone [2008, боевик, триллер, драма, UHD BDRemux 2160p] 2xMVO + 2xAVO смотреть онлайн, скачать торрент picoco.icu