Доктор Стрэндж

Лицензия

Добыча

Дубляж

Дом дракона

1 сезон

Тор

Дубляж

В эфире

Дубляж

Там, где раки поют

MVO

Властелин колец

1 сезон

Ultimate

pack

Рекомендуем

30

Пиратка

ВАЖНО

ВАЖНО

Ghostwire

Пиратка

jed

RePack

nioh2

RePack

RDR2

RePack

NEED FOR SPEED™ PAYBACK

RePack

скачать торрент

Кинопоиск HD

Острые козырьки 6 сезон

6 сезон

FAR CRY 6

RePack

скачать торрент

Лицензия

скачать торрент

MVO

1

1 сезон

скачать торрент

1 сезон

скачать торрент

Лицензия

  

Затерянный мир / The Lost World (Ирвин Аллен) [1960, фантастика, фэнтези, приключения, BDRip 1080p ] VO

Затерянный мир через торрент piratbit.org

Размер: 9.45 GB | Добавлен: 4 года 1 мес. назад | Торрент скачан:10 раз
Смотреть онлайн | Скачать   

30-09-2018 10:36 Затерянный мир Скачать торрент  

Название: Затерянный мир
Оригинальное название: The Lost World
Год выпуска: 1960
Страна: США
Жанр: фантастика, фэнтези, приключения
Продолжительность: 01:36:12
Перевод: закадровый одноголосый

Режиссер: Ирвин Аллен
В ролях: Майкл Ренни, Джилл Ст. Джон, Дэвид Хэдисон, Клод Рейнс, Фернандо Ламас, Ричард Хэйдн, Рэй Стриклин, Джей Новелло, Витина Маркус, Йен Вульф, Колин Кэмпбелл, Ларри Чэнс, Дон Форбс, Джон Грэхэм, Бен Райт

Описание: В начале XX века знаменитый профессор Челленджер делает потрясающее открытие: на удалённом плато в джунглях Амазонки существует удивительный и прекрасный мир, в котором до сих пор обитают динозавры. Миллионы лет эволюции его не коснулись, он остался в первозданном виде. Чтобы переубедить скептиков, группа искателей приключений — сам Челленджер, его чудаковатый коллега профессор Саммерли, девушка Агнес из миссионерского посёлка, бесстрашный охотник лорд Джон Рокстон и молодой репортёр Эдвард Мэлоун отправляются в захватывающее, полное опасностей путешествие на поиски этого удивительного доисторического мира... По мотивам одноимённого романа Конан Дойла.



Качество: BDRip 1080p
Формат: MKV
Видео: MPEG-4 AVC, 12.5 Mбит/с, 1920x814
Аудио 1: русский, DTS, 768 kbps, 2 ch, 48 kHz [закадровый одноголосый, den904 по субтитрам от Disluo]
Аудио 2: английский, DTS, 768 kbps, 2 ch, 48 kHz [оригинал]
Субтитры 1: русские (Disluo)
Субтитры 2: английские
Главы/чаптеры
Общее
Уникальный идентификатор : 189640060951051119787508950692198571220 (0x8EAB58E25E43F822B100998B407B5CD4)
Полное имя : D:\Video\Затерянный мир.1960.BDRip 1080p by msltel.mkv
Формат : Matroska
Версия формата : Version 4
Размер файла : 9,45 Гбайт
Продолжительность : 1 ч. 36 м.
Общий поток : 14,1 Мбит/сек
Название фильма : Rip by msltel
Дата кодирования : UTC 2018-09-20 14:49:38
Программа кодирования : mkvmerge v8.2.0 ('World of Adventure') 64bit
Библиотека кодирования : libebml v1.3.1 + libmatroska v1.4.2

Видео
Идентификатор : 1
Формат : AVC
Формат/Информация : Advanced Video Codec
Профиль формата : High@L4.1
Настройки формата : CABAC / 4 Ref Frames
Параметр CABAC формата : Да
Параметр RefFrames формата : 4 кадра
Идентификатор кодека : V_MPEG4/ISO/AVC
Продолжительность : 1 ч. 36 м.
Битрейт : 12,5 Мбит/сек
Ширина : 1920 пикселей
Высота : 814 пикселей
Соотношение сторон : 2,35:1
Режим частоты кадров : Постоянный
Частота кадров : 23,976 (24000/1001) кадра/сек
Цветовое пространство : YUV
Субдискретизация насыщенности : 4:2:0
Битовая глубина : 8 бит
Тип развёртки : Прогрессивная
Бит/(Пиксели*Кадры) : 0.334
Размер потока : 8,42 Гбайт (89%)
Библиотека кодирования : x264 core 155 r2901 7d0ff22
Настройки программы : cabac=1 / ref=4 / deblock=1:-3:-2 / analyse=0x3:0x113 / me=umh / subme=11 / psy=1 / psy_rd=1.00:0.15 / mixed_ref=1 / me_range=32 / chroma_me=1 / trellis=2 / 8x8dct=1 / cqm=0 / deadzone=21,11 / fast_pskip=0 / chroma_qp_offset=-3 / threads=6 / lookahead_threads=1 / sliced_threads=0 / nr=0 / decimate=1 / interlaced=0 / bluray_compat=0 / constrained_intra=0 / bframes=9 / b_pyramid=2 / b_adapt=2 / b_bias=0 / direct=1 / weightb=1 / open_gop=0 / weightp=2 / keyint=230 / keyint_min=23 / scenecut=40 / intra_refresh=0 / rc_lookahead=40 / rc=crf / mbtree=1 / crf=19.8 / qcomp=0.60 / qpmin=0 / qpmax=69 / qpstep=4 / vbv_maxrate=62500 / vbv_bufsize=78125 / crf_max=0.0 / nal_hrd=none / filler=0 / ip_ratio=1.40 / aq=1:1.00
Язык : English
Default : Да
Forced : Нет

Аудио #1
Идентификатор : 2
Формат : DTS
Формат/Информация : Digital Theater Systems
Идентификатор кодека : A_DTS
Продолжительность : 1 ч. 36 м.
Вид битрейта : Постоянный
Битрейт : 768 Кбит/сек
Каналы : 2 канала
Channel layout : L R
Частота : 48,0 КГц
Частота кадров : 93,750 кадра/сек (512 SPF)
Битовая глубина : 16 бит
Метод сжатия : С потерями
Размер потока : 528 Мбайт (5%)
Заголовок : den904 по субтитрам от Disluo
Язык : Russian
Default : Да
Forced : Нет

Аудио #2
Идентификатор : 3
Формат : DTS
Формат/Информация : Digital Theater Systems
Идентификатор кодека : A_DTS
Продолжительность : 1 ч. 36 м.
Вид битрейта : Постоянный
Битрейт : 768 Кбит/сек
Каналы : 2 канала
Channel layout : Lt Rt
Частота : 48,0 КГц
Частота кадров : 93,750 кадра/сек (512 SPF)
Битовая глубина : 16 бит
Метод сжатия : С потерями
Размер потока : 528 Мбайт (5%)
Заголовок : original
Язык : English
Default : Нет
Forced : Нет

Текст #1
Идентификатор : 4
Формат : UTF-8
Идентификатор кодека : S_TEXT/UTF8
Идентификатор кодека/Информация : UTF-8 Plain Text
Продолжительность : 1 ч. 35 м.
Битрейт : 90 бит/сек
ElementCount : 1001
Размер потока : 63,7 Кбайт (0%)
Заголовок : русские Disluo
Язык : Russian
Default : Нет
Forced : Нет

Текст #2
Идентификатор : 5
Формат : UTF-8
Идентификатор кодека : S_TEXT/UTF8
Идентификатор кодека/Информация : UTF-8 Plain Text
Продолжительность : 1 ч. 33 м.
Битрейт : 57 бит/сек
ElementCount : 1030
Размер потока : 39,2 Кбайт (0%)
Заголовок : английские
Язык : English
Default : Нет
Forced : Нет

Меню
00:00:00.000 : en:00:00:00.000
00:05:12.521 : en:00:05:12.521
00:17:14.951 : en:00:17:14.951
00:38:17.587 : en:00:38:17.587
00:53:28.163 : en:00:53:28.163
01:01:14.296 : en:01:01:14.296
01:08:26.185 : en:01:08:26.185
01:19:20.756 : en:01:19:20.756



Скачать Затерянный мир через торрент https://a.radikal.ru/a13/1809/16/bf073952f563.png Скачать, смотреть онлайн Затерянный мир бесплантно в хорошем качестве Описание: В начале XX века знаменитый профессор Челленджер делает потрясающее открытие: на удалённом плато в джунглях Амазонки существует ... 1 10 2
Info! Золотая раздача, скачанное не засчитывается.
Торрент: Зарегистрирован [2018-09-30 10:36] · скачан: 10 раз
Статус: √ проверено
Размер: 9.45 GB
Как cкачать? Как скачать Затерянный мир через торрент | UTorrent

% Раздел Тема Автор DL S | L
Классика зарубежного кино [ 4.51 GB ] Затерянный мир / The Lost World | | 720p от KORSAR Cthulhu Скачать
1 | 0
Фильмы [HD 720p, 1080p] (Звук Cam, VO, DVO) [ 3.5 GB ] Затерянный мир / The Lost World | | 720p msltel Скачать
1 | 0

28-11-2019 20:33  


Отключить вcю реклaмy на сайте, в т.ч. и в плеере онлайн просмотра!

    Дорогой пользователь! Огромная просьба, поблагодарите релизера, оцените раздачу и оставьте свои комментарий, если Вы скачали Затерянный мир через торрент бесплатно!!
    Комментировать посты могут только пользователи прошедшие не сложную регистрацию
    Показать сообщения:    


    Затерянный мир через торрент
    Скачать бесплатно Затерянный мир
    Затерянный мир скачать торрент
    Затерянный мир смотреть онлайн
    Cкачать фильм Затерянный мир бесплатно
    Затерянный мир скачать торрент в хорошем качестве
    Затерянный мир смотреть онлайн бесплатно в хорошем качестве
    Вы не можете начинать темы
    Вы не можете отвечать на сообщения
    Вы не можете редактировать свои сообщения
    Вы не можете удалять свои сообщения
    Вы не можете голосовать в опросах
    Вы не можете прикреплять файлы к сообщениям
    Вы можете скачивать файлы
    Затерянный мир / The Lost World [1960, фантастика, фэнтези, приключения, BDRip 1080p ] VO смотреть онлайн, скачать торрент picoco.icu