Достать ножи: Стеклянная луковица

MVO

Добыча

Дубляж

Уэнсдэй

1 сезон

Тор

Дубляж

13 клиническая

1 сезон

Жестокая ночь

MVO

Одни из нас

1 сезон

Deluxe

pack

Рекомендуем

30

Пиратка

ВАЖНО

ВАЖНО

Ghostwire

Пиратка

jed

RePack

nioh2

RePack

RDR2

RePack

NEED FOR SPEED™ PAYBACK

RePack

скачать торрент

Кинопоиск HD

Острые козырьки 6 сезон

6 сезон

FAR CRY 6

RePack

скачать торрент

Лицензия

скачать торрент

MVO

1

1 сезон

скачать торрент

1 сезон

скачать торрент

Лицензия

  

Судная ночь. Начало / The First Purge (Герард МакМюррей) [2018, ужасы, фантастика, боевик, UHD BDRemux 2160p] Дубляж [Лицензия]

Судная ночь. Начало через торрент piratbit.org

Размер: 49.2 GB | Добавлен: 4 года 3 мес. назад | Торрент скачан:26 раз
Смотреть онлайн | Скачать | Поддержите нас   

30-09-2018 15:47 Судная ночь. Начало Скачать торрент  

Судная ночь. Начало / The First Purge«Нет правил. Нет законов. Нет пощады»
Год выпуска: 2018
Страна: США
Жанр: ужасы, фантастика, боевик, триллер
Продолжительность: 01:37:25
Перевод: Дублированный | Лицензия
Субтитры: Русские (Forced, Full), английские (Full, SDH, SDH Colored)
Режиссер: Герард МакМюррей
В ролях:

И’лан Ноэль (Dmitri), Лекс Скотт Дэвис (Nya), Джоиван Уэйд (Isaiah), Магга (Dolores), Патрик Дарро (Chief of Staff - Arlo Sabian), Мариса Томей (The Architect - Dr. Updale), Лорен Луна Велес (Luisa), Кристен Солис (Selina), Ротими Пол (Skeletor), Мо (7 & 7), Джернел Ховард (Lorenzo), Сия (Blaise)
Описание:
Хотели бы вы жить в идеальном мире, где нет преступности, безработицы и войн? Единственная плата за такое счастливое будущее - это одна ночь абсолютного беззакония в году. Ночь, когда дозволено всё. Согласны поучаствовать в таком социальном эксперименте?
Рейтинг:

MPAA: R - Лицам до 17 лет обязательно присутствие взрослого
Качество: UHD BDRemux 2160p
Формат: MKV
Видео: HEVC, HDR, 64300 Kбит/с, 3840x2160
Аудио #01: DTS, 6 ch, 768 Кбит/с | Лицензия | RUS |
Аудио #02: AC3, 6 ch, 448 Кбит/с | Лицензия | RUS |
Аудио #03: DTS-HD MA, 8 ch, 6816 Кбит/c | Оригинал | ENG |
Навигация по главам: есть
General
Unique ID : 44698504958473529243276514832108727365 (0x21A09E71564AADC40BA25F5BEC83AC45)
Complete name : D:\Video111\The.First.Purge.2018.4K.HDR.UHD.BDREMUX.2160p.selezen.mkv
Format : Matroska
Format version : Version 4
File size : 49.2 GiB
Duration : 1 h 37 min
Overall bit rate mode : Variable
Overall bit rate : 72.3 Mb/s
Movie name : The First Purge 4K (2018) селезень
Encoded date : UTC 2018-11-04 22:32:49
Writing application : mkvmerge v28.0.0 ('Voice In My Head') 64-bit
Writing library : libebml v1.3.6 + libmatroska v1.4.9

Video
ID : 1
Format : HEVC
Format/Info : High Efficiency Video Coding
Commercial name : HDR10
Format profile : Main 10@L5.1@High
Codec ID : V_MPEGH/ISO/HEVC
Duration : 1 h 37 min
Bit rate : 64.3 Mb/s
Width : 3 840 pixels
Height : 2 160 pixels
Display aspect ratio : 16:9
Frame rate mode : Constant
Frame rate : 23.976 (24000/1001) FPS
Color space : YUV
Chroma subsampling : 4:2:0 (Type 2)
Bit depth : 10 bits
Bits/(Pixel*Frame) : 0.323
Stream size : 43.7 GiB (89%)
Writing library : ATEME Titan File 3.8.16 (4.8.16.0)
Language : English
Default : Yes
Forced : No
Color range : Limited
Color primaries : BT.2020
Transfer characteristics : PQ
Matrix coefficients : BT.2020 non-constant
Mastering display color pri : Display P3
Mastering display luminance : min: 0.0050 cd/m2, max: 1000 cd/m2
Maximum Content Light Level : 1000 cd/m2
Maximum Frame-Average Light : 202 cd/m2

Audio #1
ID : 2
Format : DTS
Format/Info : Digital Theater Systems
Codec ID : A_DTS
Duration : 1 h 37 min
Bit rate mode : Constant
Bit rate : 768 kb/s
Channel(s) : 6 channels
Channel layout : C L R Ls Rs LFE
Sampling rate : 48.0 kHz
Frame rate : 93.750 FPS (512 SPF)
Bit depth : 24 bits
Compression mode : Lossy
Stream size : 535 MiB (1%)
Title : Дубляж [License]
Language : Russian
Default : Yes
Forced : Yes

Audio #2
ID : 3
Format : AC-3
Format/Info : Audio Coding 3
Commercial name : Dolby Digital
Codec ID : A_AC3
Duration : 1 h 37 min
Bit rate mode : Constant
Bit rate : 448 kb/s
Channel(s) : 6 channels
Channel layout : L R C LFE Ls Rs
Sampling rate : 48.0 kHz
Frame rate : 31.250 FPS (1536 SPF)
Bit depth : 16 bits
Compression mode : Lossy
Stream size : 312 MiB (1%)
Title : Дубляж [License]
Language : Russian
Service kind : Complete Main
Default : No
Forced : No

Audio #3
ID : 4
Format : DTS XLL X
Format/Info : Digital Theater Systems
Commercial name : DTS-HD Master Audio
Codec ID : A_DTS
Duration : 1 h 37 min
Bit rate mode : Variable
Bit rate : 6 816 kb/s
Channel(s) : 8 channels
Channel(s)_Original : Object Based
Channel layout : Object Based
Sampling rate : 48.0 kHz
Frame rate : 93.750 FPS (512 SPF)
Bit depth : 24 bits
Stream size : 4.64 GiB (9%)
Title : Original
Language : English
Default : No
Forced : No

Text #1
ID : 5
Format : UTF-8
Codec ID : S_TEXT/UTF8
Codec ID/Info : UTF-8 Plain Text
Duration : 1 h 34 min
Bit rate : 0 b/s
Count of elements : 14
Stream size : 418 Bytes (0%)
Title : Forced
Language : Russian
Default : Yes
Forced : Yes

Text #2
ID : 6
Format : UTF-8
Codec ID : S_TEXT/UTF8
Codec ID/Info : UTF-8 Plain Text
Duration : 1 h 36 min
Bit rate : 74 b/s
Count of elements : 1243
Stream size : 52.9 KiB (0%)
Title : Full
Language : Russian
Default : No
Forced : No

Text #3
ID : 7
Format : UTF-8
Codec ID : S_TEXT/UTF8
Codec ID/Info : UTF-8 Plain Text
Duration : 1 h 30 min
Bit rate : 59 b/s
Count of elements : 1244
Stream size : 39.4 KiB (0%)
Title : Full
Language : English
Default : No
Forced : No

Text #4
ID : 8
Format : UTF-8
Codec ID : S_TEXT/UTF8
Codec ID/Info : UTF-8 Plain Text
Duration : 1 h 33 min
Bit rate : 69 b/s
Count of elements : 1496
Stream size : 47.2 KiB (0%)
Title : SDH
Language : English
Default : No
Forced : No

Text #5
ID : 9
Format : UTF-8
Codec ID : S_TEXT/UTF8
Codec ID/Info : UTF-8 Plain Text
Duration : 1 h 36 min
Bit rate : 138 b/s
Count of elements : 1880
Stream size : 98.2 KiB (0%)
Title : SDH Colored
Language : English
Default : No
Forced : No

Menu
00:00:00.000 : en:Chapter 01
00:06:25.635 : en:Chapter 02
00:11:59.802 : en:Chapter 03
00:16:18.769 : en:Chapter 04
00:21:18.110 : en:Chapter 05
00:25:56.388 : en:Chapter 06
00:30:54.144 : en:Chapter 07
00:35:31.212 : en:Chapter 08
00:38:41.110 : en:Chapter 09
00:43:02.455 : en:Chapter 10
00:48:34.411 : en:Chapter 11
00:53:35.087 : en:Chapter 12
00:55:59.565 : en:Chapter 13
00:59:13.049 : en:Chapter 14
01:05:25.713 : en:Chapter 15
01:09:31.793 : en:Chapter 16
01:13:23.733 : en:Chapter 17
01:19:47.533 : en:Chapter 18
01:24:50.043 : en:Chapter 19
01:29:54.931 : en:Chapter 20



Скачать Судная ночь. Начало через торрент https://c.radikal.ru/c13/1809/d5/921fa48b512f.png Скачать, смотреть онлайн Судная ночь. Начало бесплантно в хорошем качестве Описание: Хотели бы вы жить в идеальном мире, где нет преступности, безработицы и войн? Единственная плата за такое счастливое будущее - ... 9.5 10 2
Info! Золотая раздача, скачанное не засчитывается.
Торрент: Зарегистрирован [2018-11-05 02:20] · скачан: 26 раз
Статус: √ проверено
Размер: 49.2 GB
Как cкачать? Как скачать Судная ночь. Начало через торрент | UTorrent

% Раздел Тема Автор DL S | L
Фильмы (Blu-ray, BD-Remux, HDDVD) [ 30.29 GB ] Судная ночь. Начало / The First Purge | Лицензия | 1080p bober100 Скачать
1 | 0
Фильмы 2018 [DVDrip, WEB-DLRip, HDrip] (DUB, MVO) [ 745 MB ] Судная ночь. Начало / The First Purge | Лицензия BD EUR | BDRip bober100 Скачать
1 | 0
Фильмы 2018 [DVDrip, WEB-DLRip, HDrip] (DUB, MVO) [ 1.46 GB ] Судная ночь. Начало / The First Purge | Лицензия BD EUR | BDRip bober100 Скачать
1 | 0
Фильмы 2018 [DVDrip, WEB-DLRip, HDrip] (DUB, MVO) [ 2.66 GB ] Судная ночь. Начало / The First Purge | Лицензия | BDRip-AVC Enigma2010 Скачать
1 | 0
Фильмы [HD 720p, 1080p] (Хороший звук DUB, MVO) [ 10.18 GB ] Судная ночь. Начало / The First Purge | Лицензия | 1080p sheker187 Скачать
1 | 0
Ultra HD (UHD: 2K, 4K, 8K) [ 56.21 GB ] Судная ночь. Начало / The First Purge | Лицензия | 2160p sheker187 Скачать
1 | 0
Фильмы (Blu-ray, BD-Remux, HDDVD) [ 22.74 GB ] Судная ночь. Начало / The First Purge | Лицензия | 1080p sheker187 Скачать
1 | 0



Последний раз редактировалось: sheker187 (2018-11-05 02:24), всего редактировалось 2 раз(а)

28-11-2019 20:33  


Отключить вcю реклaмy на сайте, в т.ч. и в плеере онлайн просмотра!

05-11-2018 02:20 Судная ночь. Начало Скачать торрент  

Замена на лицензию.



    Дорогой пользователь! Огромная просьба, поблагодарите релизера, оцените раздачу и оставьте свои комментарий, если Вы скачали Судная ночь. Начало через торрент бесплатно!!
    Комментировать посты могут только пользователи прошедшие не сложную регистрацию
    Показать сообщения:    


    Судная ночь. Начало через торрент
    Скачать бесплатно Судная ночь. Начало
    Судная ночь. Начало скачать торрент
    Судная ночь. Начало смотреть онлайн
    Cкачать фильм Судная ночь. Начало бесплатно
    Судная ночь. Начало скачать торрент в хорошем качестве
    Судная ночь. Начало смотреть онлайн бесплатно в хорошем качестве
    Вы не можете начинать темы
    Вы не можете отвечать на сообщения
    Вы не можете редактировать свои сообщения
    Вы не можете удалять свои сообщения
    Вы не можете голосовать в опросах
    Вы не можете прикреплять файлы к сообщениям
    Вы можете скачивать файлы
    Судная ночь. Начало / The First Purge [2018, ужасы, фантастика, боевик, UHD BDRemux 2160p] Дубляж [Лицензия] смотреть онлайн, скачать торрент picoco.icu