1 сезон

3 сезон

iTunes

1

iTunes

DUB Netflix

iTunes

13

1 сезон

RePack

30

Deluxe

pack

Легкие деньги

ВАЖНО

ИГРА 18+

pack

RePack

MK11

RePack

jed

RePack

fifa19

RePack

RDR2

RePack

NEED FOR SPEED™ PAYBACK

4 сезон

9 сезон

Бесстыжие 9 сезон

Все сериалы

все сериалы на PB.wtf

RePack

FAR CRY 5

Anonymous, добрый день, мы не успеваем до 1 числа собрать деньги на оплату серверов, помогите нам пожалуйста в это трудное время. В качестве благодарности мы отключим Вам всю рекламу на сайте (укажите свой ник в строку Ваше имя)!

×
  
Magnet ссылка

Универ. Новая общага: Финальный сезон / Сезон: 15 / Серии: 1-18 из 18 + Фильм о фильме (Константин Смирнов) [2018, Ситком, комедия, WEB-DL 720p] piratbit.org

Универ. Новая общага: Финальный сезон через торрент piratbit.org

Размер: 12.31 GB | Добавлен: 2 года 8 мес. назад | Торрент скачан:32 раза
Скачать  

01-10-2018 19:29 Универ. Новая общага: Финальный сезон Скачать торрент  

Универ. Новая общага: Финальный сезон
Год выпуска: 2018
Страна: Россия
Жанр: Ситком, комедия
Продолжительность: ~ 00:25:00
Субтитры: отсутствуют

Режиссер: Константин Смирнов

rating

В ролях:

Арарат Кещян, Станислав Ярушин, Анна Кузина, Настасья Самбурская, Анна Хилькевич, Владимир Фекленко, Елена Валюшкина, Андрей Лебедев, Сергей Пиоро, Роман Куперман, Дмитрий Калистратов, Алексей Шаранин, Дарья Щёголева, Наталья Рудова, Иван Руденко, Анатолий Носов, Дмитрий Кузин, Мария Беляева, Александра Булычева, Галина Глушкова, Александр Стекольников

Описание:

Универ» - больше, чем просто сериал. «Универ» - проверенный друг с отличным чувством юмора, сотнями готовых лайфхаков на все случаи жизни и хорошей долей самоиронии. За эти 10 лет некоторые из актрис сериала, снявшись обнаженными для мужских журналов, стали депутатами в Государственной думе, женами завидных иностранных миллионеров и самыми популярными инстаграмерами. Многие актеры обзавелись прекрасным потомством, а одна сериальная пара даже вдохновила авторов на создание отдельного спиноффа. Но главные герои нового сезона по-прежнему в отличной форме: Маша снимется в проекте 18+, Майкл получит крупное наследство, Антон найдет замену Кристине, а Валя поверит в себя и почувствует свою мужскую силу. Оставаться молодыми и дерзкими парней заставит еще один весомый аргумент: в общагу заселятся две новенькие героини – сестры-двойняшки Ника и Вика.

Качество: WEB-DL 720p
Формат: MKV

Видео: MPEG-4 AVC, ~ 3500 Кбит/с, 1280x720
Аудио: AC3, 2 ch, 192 Кбит/с
скриншот  скриншот  скриншот  скриншот  скриншот  

Общее
Уникальный идентификатор : 214854154378685539671859357844912419454 (0xA1A367AB6B2BE0BDA65849547FEF327E)
Полное имя : D:\Univer.Novaya.obschaga.s15.WEB-DL 720p\Univer.s15.01.2018.WEB-DL 720p.Files-x.mkv
Формат : Matroska
Версия формата : Version 2
Размер файла : 674 Мбайт
Продолжительность : 24 м. 51 с.
Общий поток : 3788 Кбит/сек
Дата кодирования : UTC 2018-09-03 18:19:59
Программа кодирования : mkvmerge v7.8.0 ('River Man') 32bit built on Apr 3 2015 12:11:22
Библиотека кодирования : libebml v1.3.1 + libmatroska v1.4.2

Видео
Идентификатор : 1
Формат : AVC
Формат/Информация : Advanced Video Codec
Профиль формата : High@L3.1
Параметр CABAC формата : Да
Параметр RefFrames формата : 1 кадр
Параметр GOP формата : M=1, N=12
Идентификатор кодека : V_MPEG4/ISO/AVC
Продолжительность : 24 м. 51 с.
Битрейт : 3521 Кбит/сек
Ширина : 1280 пикселей
Высота : 720 пикселей
Соотношение сторон : 16:9
Режим частоты кадров : Постоянный
Частота кадров : 25,000 кадров/сек
Стандарт вещания : Component
Цветовое пространство : YUV
Субдискретизация насыщенности : 4:2:0
Битовая глубина : 8 бит
Тип развёртки : Прогрессивная
Бит/(Пиксели*Кадры) : 0.153
Размер потока : 626 Мбайт (93%)
Default : Да
Forced : Нет
Цветовой диапазон : Limited

Аудио
Идентификатор : 2
Формат : AC-3
Формат/Информация : Audio Coding 3
Расширение режима : CM (complete main)
Параметр Endianness формата : Big
Идентификатор кодека : A_AC3
Продолжительность : 24 м. 51 с.
Вид битрейта : Постоянный
Битрейт : 192 Кбит/сек
Каналы : 2 канала
Расположение каналов : Front: L R
Частота : 44,1 КГц
Частота кадров : 28,711 кадров/сек (1536 spf)
Метод сжатия : С потерями
Размер потока : 34,1 Мбайт (5%)
Default : Да
Forced : Нет

piratbit.org



Скачать Универ. Новая общага: Финальный сезон через торрент http://i103.fastpic.ru/big/2018/0903/5c/91cb28e7d8047af0883088940aa9ad5c.jpg Скачать фильм Универ. Новая общага: Финальный сезон через торрент бесплантно в хорошем качестве Описание: Универ» - больше, чем просто сериал. «Универ» - проверенный друг с отличным чувством юмора, сотнями готовых лайфхаков на все ... 10 10 5
Торрент: Зарегистрирован [2018-10-02 19:40] · скачан: 32 раз
Статус: √ проверено
Размер: 12.31 GB
Как cкачать? Как скачать Универ. Новая общага: Финальный сезон через торрент | UTorrent

% Раздел Тема Автор DL S | L
TNT serials [ 5.91 GB ] Универ. Новая общага: Финальный сезон / Сезон: 15 / Серии: 1-18 из 18 + Фильм о Фильме [2018 Ситком SATRip] bober100 Скачать
1 | 0
TNT serials [ 6.33 GB ] Универ. Новая общага: Финальный сезон / Сезон: 15 / Серии: 1-18 из 18 + Фильм о фильме [2018 Ситком WEB-DLRip] bober100 Скачать
1 | 0
TNT serials [ 6.92 GB ] Универ. Новая общага: Финальный сезон / Сезон: 15 / Серии: 1-18 из 18 + Фильм о Фильме [2018 Ситком HDTVRip-AVC] bober100 Скачать
1 | 0
TNT serials [ 13.39 GB ] Универ. Новая общага: Финальный сезон / Сезон: 15 / Серии: 1-18 из 18 + Фильм о фильме [2018 Ситком HDTVRip 720p] bober100 Скачать
1 | 0
TNT serials [ 26.02 GB ] Универ. Новая общага: Финальный сезон / Сезон: 15 / Серии: 1-18 из 18 + Фильм о фильме [2018 Ситком HDTV 1080i] bober100 Скачать
1 | 0
TNT serials [ 16.83 GB ] Универ. Новая общага: Финальный сезон / Сезон: 15 / Серии: 1-18 из 18 + Фильм о сериале [2018 Ситком WEB-DL 1080p] bober100 Скачать
1 | 0
Наши сериалы [ 5.67 GB ] Универ. Новая общага: Финальный сезон / Сезон: 15 / Серии: 1-18 из 18 + Фильм о фильме [2018 Ситком HDTVRip] bober100 Скачать
1 | 0

28-11-2019 20:33  

Отключить всю рекламу на сайте

    Дорогой пользователь! Огромная просьба, поблагодарите релизера, оцените раздачу и оставьте свои комментарий, если Вы скачали Универ. Новая общага: Финальный сезон через торрент бесплатно! Внесите свою лепту в развитие PiratBit!
    Комментировать посты могут только пользователи прошедшие не сложную регистрацию
    Показать сообщения:    

    Универ. Новая общага: Финальный сезон через торрент
    Скачать бесплатно Универ. Новая общага: Финальный сезон
    Универ. Новая общага: Финальный сезон скачать торрент
    Универ. Новая общага: Финальный сезон смотреть онлайн
    Cкачать фильм Универ. Новая общага: Финальный сезон бесплатно
    Универ. Новая общага: Финальный сезон скачать торрент в хорошем качестве
    Универ. Новая общага: Финальный сезон смотреть онлайн бесплатно в хорошем качестве


    Вы не можете начинать темы
    Вы не можете отвечать на сообщения
    Вы не можете редактировать свои сообщения
    Вы не можете удалять свои сообщения
    Вы не можете голосовать в опросах
    Вы не можете прикреплять файлы к сообщениям
    Вы можете скачивать файлы