1 сезон

3 сезон

iTunes

1

iTunes

DUB Netflix

iTunes

13

1 сезон

RePack

30

Deluxe

pack

Легкие деньги

ВАЖНО

ИГРА 18+

pack

RePack

MK11

RePack

jed

RePack

fifa19

RePack

RDR2

RePack

NEED FOR SPEED™ PAYBACK

4 сезон

9 сезон

Бесстыжие 9 сезон

Все сериалы

все сериалы на PB.wtf

RePack

FAR CRY 5

Anonymous, добрый день, мы не успеваем до 1 числа собрать деньги на оплату серверов, помогите нам пожалуйста в это трудное время. В качестве благодарности мы отключим Вам всю рекламу на сайте (укажите свой ник в строку Ваше имя)!

×
  
Magnet ссылка

Универ. Новая общага: Финальный сезон / Сезон: 15 / Серии: 1-18 из 18 + Фильм о фильме (Константин Смирнов) [2018, Ситком, комедия, WEB-DLRip] piratbit.org

Универ. Новая общага: Финальный сезон через торрент piratbit.org

Размер: 6.33 GB | Добавлен: 2 года 8 мес. назад | Торрент скачан:62 раза
Скачать  

02-10-2018 12:47 Универ. Новая общага: Финальный сезон Скачать торрент  

Универ. Новая общага: Финальный сезон
Год выпуска: 2018
Страна: Россия
Жанр: Ситком, комедия
Продолжительность: ~ 00:25:00
Субтитры: отсутствуют

Режиссер: Константин Смирнов

rating

В ролях:

Арарат Кещян, Станислав Ярушин, Анна Кузина, Настасья Самбурская, Анна Хилькевич, Владимир Фекленко, Елена Валюшкина, Андрей Лебедев, Сергей Пиоро, Роман Куперман, Дмитрий Калистратов, Алексей Шаранин, Дарья Щёголева, Наталья Рудова, Иван Руденко, Анатолий Носов, Дмитрий Кузин, Мария Беляева, Александра Булычева, Галина Глушкова, Александр Стекольников

Описание:

Универ» - больше, чем просто сериал. «Универ» - проверенный друг с отличным чувством юмора, сотнями готовых лайфхаков на все случаи жизни и хорошей долей самоиронии. За эти 10 лет некоторые из актрис сериала, снявшись обнаженными для мужских журналов, стали депутатами в Государственной думе, женами завидных иностранных миллионеров и самыми популярными инстаграмерами. Многие актеры обзавелись прекрасным потомством, а одна сериальная пара даже вдохновила авторов на создание отдельного спиноффа. Но главные герои нового сезона по-прежнему в отличной форме: Маша снимется в проекте 18+, Майкл получит крупное наследство, Антон найдет замену Кристине, а Валя поверит в себя и почувствует свою мужскую силу. Оставаться молодыми и дерзкими парней заставит еще один весомый аргумент: в общагу заселятся две новенькие героини – сестры-двойняшки Ника и Вика.

Качество: WEB-DLRip
Формат: AVI

Видео: XviD, ~ 1800 Кбит/с, 720x400
Аудио: Русский (AC3, 2 ch, 192 Кбит/с)
скриншот  скриншот  скриншот  скриншот  скриншот  

Общее
Полное имя : D:\Univer.Novaya.obschaga.s15.WEB-DLRip\Univer.s15.01.2018.WEB-DLRip.Files-x.avi
Формат : AVI
Формат/Информация : Audio Video Interleave
Размер файла : 356 Мбайт
Продолжительность : 24 м. 51 с.
Общий поток : 2002 Кбит/сек
Программа кодирования : VirtualDubMod 1.5.10.3 | www.virtualdub-fr.org || (build 2550/release)
Библиотека кодирования : VirtualDubMod build 2550/release

Видео
Идентификатор : 0
Формат : MPEG-4 Visual
Профиль формата : Advanced Simple@L5
Параметр BVOP формата : 1
Параметр QPel формата : Да
Параметр GMC формата : Без точки перехода
Параметр матрицы формата : Default (MPEG)
Идентификатор кодека : XVID
Идентификатор кодека/Подсказка : XviD
Продолжительность : 24 м. 51 с.
Битрейт : 1800 Кбит/сек
Ширина : 720 пикселей
Высота : 400 пикселей
Соотношение сторон : 16:9
Частота кадров : 25,000 кадров/сек
Цветовое пространство : YUV
Субдискретизация насыщенности : 4:2:0
Битовая глубина : 8 бит
Тип развёртки : Прогрессивная
Метод сжатия : С потерями
Бит/(Пиксели*Кадры) : 0.250
Размер потока : 320 Мбайт (90%)
Библиотека кодирования : XviD 73

Аудио
Идентификатор : 1
Формат : AC-3
Формат/Информация : Audio Coding 3
Расширение режима : CM (complete main)
Параметр Endianness формата : Big
Идентификатор кодека : 2000
Продолжительность : 24 м. 51 с.
Вид битрейта : Постоянный
Битрейт : 192 Кбит/сек
Каналы : 2 канала
Расположение каналов : Front: L R
Частота : 48,0 КГц
Частота кадров : 31,250 кадров/сек (1536 spf)
Метод сжатия : С потерями
Размер потока : 34,1 Мбайт (10%)
Выравнивание : Разделение по промежуткам
Продолжительность промежутка : 40 мс. (1,00 видеокадр)
Время предзагрузки промежутка : 500 мс.

piratbit.org



Скачать Универ. Новая общага: Финальный сезон через торрент http://i103.fastpic.ru/big/2018/0903/5c/91cb28e7d8047af0883088940aa9ad5c.jpg Скачать фильм Универ. Новая общага: Финальный сезон через торрент бесплантно в хорошем качестве Описание: Универ» - больше, чем просто сериал. «Универ» - проверенный друг с отличным чувством юмора, сотнями готовых лайфхаков на все ... 9.8 10 5
Торрент: Зарегистрирован [2018-10-03 02:05] · скачан: 62 раз
Статус: √ проверено
Размер: 6.33 GB
Как cкачать? Как скачать Универ. Новая общага: Финальный сезон через торрент | UTorrent

% Раздел Тема Автор DL S | L
TNT serials [ 5.91 GB ] Универ. Новая общага: Финальный сезон / Сезон: 15 / Серии: 1-18 из 18 + Фильм о Фильме [2018 Ситком SATRip] bober100 Скачать
1 | 0
TNT serials [ 6.92 GB ] Универ. Новая общага: Финальный сезон / Сезон: 15 / Серии: 1-18 из 18 + Фильм о Фильме [2018 Ситком HDTVRip-AVC] bober100 Скачать
1 | 0
TNT serials [ 12.31 GB ] Универ. Новая общага: Финальный сезон / Сезон: 15 / Серии: 1-18 из 18 + Фильм о фильме [2018 Ситком WEB-DL 720p] bober100 Скачать
1 | 0
TNT serials [ 13.39 GB ] Универ. Новая общага: Финальный сезон / Сезон: 15 / Серии: 1-18 из 18 + Фильм о фильме [2018 Ситком HDTVRip 720p] bober100 Скачать
1 | 0
TNT serials [ 26.02 GB ] Универ. Новая общага: Финальный сезон / Сезон: 15 / Серии: 1-18 из 18 + Фильм о фильме [2018 Ситком HDTV 1080i] bober100 Скачать
1 | 0
TNT serials [ 16.83 GB ] Универ. Новая общага: Финальный сезон / Сезон: 15 / Серии: 1-18 из 18 + Фильм о сериале [2018 Ситком WEB-DL 1080p] bober100 Скачать
1 | 0
Наши сериалы [ 5.67 GB ] Универ. Новая общага: Финальный сезон / Сезон: 15 / Серии: 1-18 из 18 + Фильм о фильме [2018 Ситком HDTVRip] bober100 Скачать
1 | 0

28-11-2019 20:33  

Отключить всю рекламу на сайте

    Дорогой пользователь! Огромная просьба, поблагодарите релизера, оцените раздачу и оставьте свои комментарий, если Вы скачали Универ. Новая общага: Финальный сезон через торрент бесплатно! Внесите свою лепту в развитие PiratBit!
    Комментировать посты могут только пользователи прошедшие не сложную регистрацию
    Показать сообщения:    

    Универ. Новая общага: Финальный сезон через торрент
    Скачать бесплатно Универ. Новая общага: Финальный сезон
    Универ. Новая общага: Финальный сезон скачать торрент
    Универ. Новая общага: Финальный сезон смотреть онлайн
    Cкачать фильм Универ. Новая общага: Финальный сезон бесплатно
    Универ. Новая общага: Финальный сезон скачать торрент в хорошем качестве
    Универ. Новая общага: Финальный сезон смотреть онлайн бесплатно в хорошем качестве


    Вы не можете начинать темы
    Вы не можете отвечать на сообщения
    Вы не можете редактировать свои сообщения
    Вы не можете удалять свои сообщения
    Вы не можете голосовать в опросах
    Вы не можете прикреплять файлы к сообщениям
    Вы можете скачивать файлы