Ссылка на приватное зеркало нашего сайта всего за 1$. Внимание количество ограничено!!!

2 сезон

iTunes

iTunes

1

iTunes

iTunes

iTunes

WEBRip

iTunes

30
pack

Вам бонус

ВАЖНО

!!Акция!!

Alien_RageХит недели

RePack

Horizon Zero Dawn

ИГРА 18+

pack

RePack

jed

!!Акция!!

Alien_Rage

RePack

fifa19

RePack

Assassins Creed: Odyssey

RePack

NEED FOR SPEED™ PAYBACK

4 сезон

9 сезон

Бесстыжие 9 сезон

Все сериалы

все сериалы на PB.wtf

RePack

FAR CRY 5
  

Подвал / The Basement (Брайан М. Конли, Нэйтан Айвз) [2018, Ужасы, BDRip 1080p] MVO [HDRezka Studio] piratbit.org

Подвал через торрент piratbit.org

Раздают: 1 [ 0 KB/s ]
Размер: 5.76 GB | Добавлен: 14 д. назад | Торрент скачан:52 раза
Скачать  

02-10-2018 17:29 Подвал Скачать торрент  

Подвал | The Basement
Год выпуска: 2018
Страна: США
Студия: The Conley Company
Жанр: Ужасы
Продолжительность: 01:28:32
Перевод: Профессиональный (многоголосый) | HDRezka Studio
Субтитры: Английские

Режиссер: Брайан М. Конли, Нэйтан Айвз

rating
В ролях:

Миша Бартон, Трейси Томс, Бэйли Энн Бордерс, Джефф Дэвис, Карим Дж. Граймс, Джессика Соннеборн, Мария Волк, Сара Никлин, Памела Уистром, Кейлб Лонг

Описание: Музыкант Крейг Оуэн оказывается похищен и просыпается в подвале. Его похититель, известный как «Близнецы», – извращенный серийный убийца, который пытает и убивает несчастных жертв в подвале собственного дома в Сан-Фернандо. Двенадцать личностей меняются в одном человеке, чтобы каждая могла принять участие в ужасающих пытках, превращающих жизнь музыканта в настоящий ад. И теперь мужчине предстоит найти путь к пониманию психологического отклонения убийцы, чтобы спасти свою жизнь. В то время как жена Крейга пытается понять, что произошло с ее мужем, и предпринимает попытки найти его.

Качество: BDRip 1080p
Формат: MKV

Видео: AVC/H.264, 1920x804, 8415 Кbps, 23,976 fps
Аудио#1: 48 kHz, AC3, 6 ch, 448 avg | RUS (HDRezka Studio)
Аудио#2: 48 kHz, AC3, 6 ch, 448 kbps avg | ENG
скриншот  скриншот  скриншот  скриншот  

Общее
Уникальный идентификатор : 136186252190618956256443259088259580769 (0x667484A2E8714B9859BF23936EAD0361)
Полное имя : The Basement.2018.BDRip.1080p.W.mkv
Формат : Matroska
Версия формата : Version 4
Размер файла : 5,76 Гбайт
Продолжительность : 1 ч. 28 м.
Общий поток : 9 307 Кбит/сек
Название фильма : The Basement.2018.BDRip.1080p.W
Дата кодирования : UTC 2020-09-11 15:31:10
Программа кодирования : mkvmerge v23.0.0 ('The Bride Said No') 64-bit
Библиотека кодирования : libebml v1.3.6 + libmatroska v1.4.9

Видео
Идентификатор : 1
Формат : AVC
Формат/Информация : Advanced Video Codec
Профиль формата : High@L4.1
Настройки формата : CABAC / 5 Ref Frames
Параметр CABAC формата : Да
Параметр RefFrames формата : 5 кадров
Идентификатор кодека : V_MPEG4/ISO/AVC
Продолжительность : 1 ч. 28 м.
Битрейт : 8 415 Кбит/сек
Ширина : 1 920 пикселей
Высота : 804 пикселя
Соотношение сторон : 2,40:1
Режим частоты кадров : Постоянный
Частота кадров : 23,976 (23976/1000) кадра/сек
Цветовое пространство : YUV
Субдискретизация насыщенности : 4:2:0
Битовая глубина : 8 бит
Тип развёртки : Прогрессивная
Бит/(Пиксели*Кадры) : 0.227
Размер потока : 5,20 Гбайт (90%)
Заголовок : rip by -=walledol=-
Библиотека кодирования : x264 core 161 r3018 db0d417
Настройки программы : cabac=1 / ref=5 / deblock=1:-3:-3 / analyse=0x3:0x133 / me=umh / subme=11 / psy=1 / psy_rd=1.00:0.00 / mixed_ref=1 / me_range=32 / chroma_me=1 / trellis=2 / 8x8dct=1 / cqm=0 / deadzone=21,11 / fast_pskip=0 / chroma_qp_offset=-2 / threads=12 / lookahead_threads=2 / sliced_threads=0 / nr=0 / decimate=1 / interlaced=0 / bluray_compat=0 / constrained_intra=0 / bframes=9 / b_pyramid=2 / b_adapt=2 / b_bias=0 / direct=3 / weightb=1 / open_gop=0 / weightp=2 / keyint=240 / keyint_min=23 / scenecut=40 / intra_refresh=0 / rc_lookahead=60 / rc=2pass / mbtree=0 / bitrate=8415 / ratetol=1.0 / qcomp=0.60 / qpmin=0 / qpmax=69 / qpstep=4 / cplxblur=20.0 / qblur=0.5 / vbv_maxrate=30000 / vbv_bufsize=33000 / nal_hrd=none / filler=0 / ip_ratio=1.40 / pb_ratio=1.30 / aq=3:0.80
Язык : English
Default : Да
Forced : Нет

Аудио #1
Идентификатор : 2
Формат : AC-3
Формат/Информация : Audio Coding 3
Коммерческое название : Dolby Digital
Идентификатор кодека : A_AC3
Продолжительность : 1 ч. 28 м.
Вид битрейта : Постоянный
Битрейт : 448 Кбит/сек
Каналы : 6 каналов
Channel layout : L R C LFE Ls Rs
Частота : 48,0 КГц
Частота кадров : 31,250 кадров/сек (1536 SPF)
Метод сжатия : С потерями
Размер потока : 284 Мбайт (5%)
Заголовок : MVO (HDrezka Studio)
Язык : Russian
Service kind : Complete Main
Default : Да
Forced : Нет

Аудио #2
Идентификатор : 3
Формат : AC-3
Формат/Информация : Audio Coding 3
Коммерческое название : Dolby Digital
Идентификатор кодека : A_AC3
Продолжительность : 1 ч. 28 м.
Вид битрейта : Постоянный
Битрейт : 448 Кбит/сек
Каналы : 6 каналов
Channel layout : L R C LFE Ls Rs
Частота : 48,0 КГц
Частота кадров : 31,250 кадров/сек (1536 SPF)
Метод сжатия : С потерями
Размер потока : 284 Мбайт (5%)
Язык : English
Service kind : Complete Main
Default : Нет
Forced : Нет

Текст
Идентификатор : 4
Формат : UTF-8
Идентификатор кодека : S_TEXT/UTF8
Идентификатор кодека/Информация : UTF-8 Plain Text
Продолжительность : 1 ч. 27 м.
Битрейт : 43 бит/сек
Count of elements : 1102
Размер потока : 28,3 Кбайт (0%)
Язык : English
Default : Нет
Forced : Нет

Меню
00:00:00.000 : en:Chapter 1
00:04:31.771 : en:Chapter 2
00:12:24.744 : en:Chapter 3
00:21:03.762 : en:Chapter 4
00:32:46.965 : en:Chapter 5
00:47:15.833 : en:Chapter 6
01:00:36.132 : en:Chapter 7
01:17:07.623 : en:Chapter 8
01:25:40.135 : en:Chapter 9

piratbit.org



Скачать Подвал через торрент http://c.radikal.ru/c42/2009/76/547498032b4b.jpg Скачать фильм Подвал через торрент бесплантно в хорошем качестве Описание: Музыкант Крейг Оуэн оказывается похищен и просыпается в подвале. Его похититель, известный как «Близнецы», – извращенный серийный ... 10 10 6
Торрент: Зарегистрирован [2020-09-11 15:52] · скачан: 52 раз
Статус: √ проверено
Размер: 5.76 GB
Как cкачать? Как скачать Подвал через торрент | qTorrent

% Раздел Тема Автор DL S | L
Фильмы 2018 [DVDrip, WEB-DLRip, HDrip] (DUB, MVO) [ 745 MB ] Подвал / The Basement [2018 HDRip] MVO [HDRezka Studio] bober100 Скачать
6 | 0
Фильмы 2018 [DVDrip, WEB-DLRip, HDrip] (DUB, MVO) [ 1.65 GB ] Подвал / The Basement [2018 HDRip-AVC] [MVO] [HDRezka Studio] от MediaBit Lithuania Скачать
5 | 1
Фильмы (Blu-ray, BD-Remux, HDDVD) [ 15.79 GB ] Подвал / The Basement [2018 BD Remux 1080p] MVO [HDRezka Studio] bober100 Скачать
3 | 0
Фильмы (DVD фильмы) [ 3.55 GB ] Не заглядывайте в подвал / The Forgotten / Don't Look In The Basement [1973 DVDRemux] [DVO] killermax2013 Скачать
1 | 0
T Релизы по Парсеру [Игры, Сериалы и Фильмы и другое...] [ 1.37 GB ] Подвал / The Basement [2017 WEB-DLRip Любительский [Синема УС]] oleg8 Скачать
1 | 1
T Фильмы 2015 [DVDrip, WEB-DLRip, HDrip] [ 1.37 GB ] Не заглядывайте в подвал 2 / Don't Look in the Basement 2 [2015 WEB-DLRip Любительский ] СПД sanekbest1 Скачать
1 | 0

28-11-2019 20:33  

Отключить всю рекламу на сайте

    Дорогой пользователь! Огромная просьба, поблагодарите релизера, оцените раздачу и оставьте свои комментарий, если Вы скачали Подвал через торрент бесплатно! Внесите свою лепту в развитие PiratBit!
    Комментировать посты могут только пользователи прошедшие не сложную регистрацию
    Показать сообщения:    

    Подвал через торрент
    Скачать бесплатно Подвал
    Подвал скачать торрент
    Подвал смотреть онлайн
    Cкачать фильм Подвал бесплатно
    Подвал скачать торрент в хорошем качестве
    Подвал смотреть онлайн бесплатно в хорошем качестве


    Вы не можете начинать темы
    Вы не можете отвечать на сообщения
    Вы не можете редактировать свои сообщения
    Вы не можете удалять свои сообщения
    Вы не можете голосовать в опросах
    Вы не можете прикреплять файлы к сообщениям
    Вы можете скачивать файлы