Достать ножи: Стеклянная луковица

MVO

Добыча

Дубляж

Уэнсдэй

1 сезон

Тор

Дубляж

13 клиническая

1 сезон

Жестокая ночь

MVO

Одни из нас

1 сезон

Deluxe

pack

Рекомендуем

30

Пиратка

ВАЖНО

ВАЖНО

Ghostwire

Пиратка

jed

RePack

nioh2

RePack

RDR2

RePack

NEED FOR SPEED™ PAYBACK

RePack

скачать торрент

Кинопоиск HD

Острые козырьки 6 сезон

6 сезон

FAR CRY 6

RePack

скачать торрент

Лицензия

скачать торрент

MVO

1

1 сезон

скачать торрент

1 сезон

скачать торрент

Лицензия

  

Двойной форсаж / 2 Fast 2 Furious (Джон Синглтон) [2003, Боевик, триллер, криминал, UHD BDRemux 2160p] Дубляж+MVO+3xAVO

Двойной форсаж через торрент piratbit.org

Размер: 52.33 GB | Добавлен: 4 года 4 мес. назад | Торрент скачан:14 раз
Смотреть онлайн | Скачать | Поддержите нас   

03-10-2018 08:14 Двойной форсаж Скачать торрент  

Двойной форсаж / 2 Fast 2 Furious Год выпуска: 2003
Страна: США, Германия
Жанр: Боевик, триллер, криминал
Продолжительность: 01:47:40
Перевод: Дублированный, профессиональный многоголосый, авторский
Субтитры: Русские, английские

Режиссер: Джон Синглтон

rating семпл

В ролях:

Пол Уокер (Brian O'Conner), Тайриз Гибсон (Roman Pearce), Ева Мендес (Monica Fuentes), Коул Хаузер (Carter Verone), Лудакрис (Tej), Том Бэрри (Agent Bilkins), Джеймс Римар (Agent Markham), Девон Аоки (Suki), Мэтт Галлини (Enrique), Роберто «Санс» Санчес (Roberto), Амори Ноласко (Orange Julius), Майкл Или (Slap Jack)
Описание:

Бывший полицейский Брайан О`Коннер вместе с напарником Романом Пиарсом собираются перевезти крупную сумму «грязных» денег известного мафиози Картера Верона в качестве его подручных. Но на самом деле эта работа является только прикрытием для Брайана, который вместе с тайным агентом Моникой Клемент должны уличить изворотливого преступника…

Качество: UHD BDRemux 2160p
Формат: MKV

Видео: HEVC HDR, 62.9 Mбит/с, 3840x2160, 23.976 кадр/с
Аудио#1: Русский (DTS, 6 ch, 768 Кбит/с) / Дублированный (Blu-ray CEE)
Аудио#2: Русский (AC3, 6 ch, 448 Кбит/с) / Профессиональный многоголосый
Аудио#3: Русский (AC3, 6 ch, 448 Кбит/с) / Авторский (Андрей Гаврилов)
Аудио#4: Русский (AC3, 6 ch, 448 Кбит/с) / Авторский (Леонид Володарский)
Аудио#5: Русский (AC3, 6 ch, 448 Кбит/с) / Авторский (Сергей Визгунов)
Аудио#6: Английский (DTS-HD MA, 8 ch, 4214 Кбит/с)
скриншот  скриншот  скриншот  скриншот  скриншот  

General
Unique ID : 94217551457018808804010562155328470776 (0x46E1A3EEE1A7392F3185C6F3057A7EF8)
Complete name : D:uTorrent2.Fast.2.Furious.2003.BDRemux.2160p.HDR.MediaClub.mkv
Format : Matroska
Format version : Version 4
File size : 52.3 GiB
Duration : 1 h 47 min
Overall bit rate mode : Variable
Overall bit rate : 69.6 Mb/s
Encoded date : UTC 2018-10-02 22:15:57
Writing application : mkvmerge v25.0.0 ('Prog Noir') 64-bit
Writing library : libebml v1.3.6 + libmatroska v1.4.9
Cover : Yes
Attachments : cover.jpg

Video
ID : 1
Format : HEVC
Format/Info : High Efficiency Video Coding
Commercial name : HDR10
Format profile : Main 10@L5.1@High
Codec ID : V_MPEGH/ISO/HEVC
Duration : 1 h 47 min
Bit rate : 62.9 Mb/s
Width : 3 840 pixels
Height : 2 160 pixels
Display aspect ratio : 16:9
Frame rate mode : Constant
Frame rate : 23.976 (24000/1001) FPS
Color space : YUV
Chroma subsampling : 4:2:0 (Type 2)
Bit depth : 10 bits
Bits/(Pixel*Frame) : 0.316
Stream size : 47.2 GiB (90%)
Title : BDRemux.2160p.HDR by Silverok
Writing library : ATEME Titan File 3.8.16 (4.8.16.0)
Default : Yes
Forced : No
Color range : Limited
Color primaries : BT.2020
Transfer characteristics : PQ
Matrix coefficients : BT.2020 non-constant
Mastering display color primaries : Display P3
Mastering display luminance : min: 0.0050 cd/m2, max: 1000 cd/m2
Maximum Content Light Level : 1000 cd/m2
Maximum Frame-Average Light Level : 200 cd/m2

Audio #1
ID : 2
Format : DTS
Format/Info : Digital Theater Systems
Codec ID : A_DTS
Duration : 1 h 47 min
Bit rate mode : Constant
Bit rate : 768 kb/s
Channel(s) : 6 channels
Channel layout : C L R Ls Rs LFE
Sampling rate : 48.0 kHz
Frame rate : 93.750 FPS (512 SPF)
Bit depth : 24 bits
Compression mode : Lossy
Stream size : 591 MiB (1%)
Title : Дублированный (Blu-ray CEE)
Language : Russian
Default : Yes
Forced : No

Audio #2
ID : 3
Format : AC-3
Format/Info : Audio Coding 3
Commercial name : Dolby Digital
Codec ID : A_AC3
Duration : 1 h 47 min
Bit rate mode : Constant
Bit rate : 448 kb/s
Channel(s) : 6 channels
Channel layout : L R C LFE Ls Rs
Sampling rate : 48.0 kHz
Frame rate : 31.250 FPS (1536 SPF)
Bit depth : 16 bits
Compression mode : Lossy
Stream size : 345 MiB (1%)
Title : профессиональный многоголосый
Language : Russian
Service kind : Complete Main
Default : No
Forced : No

Audio #3
ID : 4
Format : AC-3
Format/Info : Audio Coding 3
Commercial name : Dolby Digital
Codec ID : A_AC3
Duration : 1 h 47 min
Bit rate mode : Constant
Bit rate : 448 kb/s
Channel(s) : 6 channels
Channel layout : L R C LFE Ls Rs
Sampling rate : 48.0 kHz
Frame rate : 31.250 FPS (1536 SPF)
Bit depth : 16 bits
Compression mode : Lossy
Stream size : 345 MiB (1%)
Title : Авторский (одноголосый закадровый) Андрей Гаврилов
Language : Russian
Service kind : Complete Main
Default : No
Forced : No

Audio #4
ID : 5
Format : AC-3
Format/Info : Audio Coding 3
Commercial name : Dolby Digital
Codec ID : A_AC3
Duration : 1 h 47 min
Bit rate mode : Constant
Bit rate : 448 kb/s
Channel(s) : 6 channels
Channel layout : L R C LFE Ls Rs
Sampling rate : 48.0 kHz
Frame rate : 31.250 FPS (1536 SPF)
Bit depth : 16 bits
Compression mode : Lossy
Stream size : 345 MiB (1%)
Title : Авторский (одноголосый закадровый) Леонид Володарский
Language : Russian
Service kind : Complete Main
Default : No
Forced : No

Audio #5
ID : 6
Format : AC-3
Format/Info : Audio Coding 3
Commercial name : Dolby Digital
Codec ID : A_AC3
Duration : 1 h 47 min
Bit rate mode : Constant
Bit rate : 448 kb/s
Channel(s) : 6 channels
Channel layout : L R C LFE Ls Rs
Sampling rate : 48.0 kHz
Frame rate : 31.250 FPS (1536 SPF)
Bit depth : 16 bits
Compression mode : Lossy
Stream size : 345 MiB (1%)
Title : Авторский (одноголосый закадровый) Сергей Визгунов
Language : Russian
Service kind : Complete Main
Default : No
Forced : No

Audio #6
ID : 7
Format : DTS XLL X
Format/Info : Digital Theater Systems
Commercial name : DTS-HD Master Audio
Codec ID : A_DTS
Duration : 1 h 47 min
Bit rate mode : Variable
Bit rate : 4 214 kb/s
Channel(s) : 8 channels
Channel(s)_Original : Object Based
Channel layout : Object Based
Sampling rate : 48.0 kHz
Frame rate : 93.750 FPS (512 SPF)
Bit depth : 24 bits
Stream size : 3.17 GiB (6%)
Language : English
Default : No
Forced : No

Text #1
ID : 8
Format : UTF-8
Codec ID : S_TEXT/UTF8
Codec ID/Info : UTF-8 Plain Text
Duration : 1 h 46 min
Bit rate : 71 b/s
Count of elements : 1069
Stream size : 55.9 KiB (0%)
Title : Full
Language : Russian
Default : Yes
Forced : No

Text #2
ID : 9
Format : UTF-8
Codec ID : S_TEXT/UTF8
Codec ID/Info : UTF-8 Plain Text
Duration : 1 h 39 min
Bit rate : 68 b/s
Count of elements : 954
Stream size : 50.4 KiB (0%)
Title : Full
Language : Russian
Default : No
Forced : No

Text #3
ID : 10
Format : UTF-8
Codec ID : S_TEXT/UTF8
Codec ID/Info : UTF-8 Plain Text
Duration : 1 h 39 min
Bit rate : 53 b/s
Count of elements : 1134
Stream size : 39.0 KiB (0%)
Title : Full
Language : English
Default : No
Forced : No

Menu
00:00:00.000 : en:The Audition
00:11:29.689 : en:Verone's New Drivers
00:14:20.818 : en:The Man for the Job
00:16:02.628 : en:In the Interest of Justice
00:18:57.344 : en:Busted
00:24:23.545 : en:Surprise!
00:28:16.820 : en:Time for Ignition
00:35:14.153 : en:Hungry
00:40:08.322 : en:The Best of Everything
00:46:44.384 : en:Two More Cars
00:58:55.114 : en:A Little Fun
01:05:03.190 : en:Looking for Monica
01:10:25.304 : en:The Wrong Two Guys
01:13:38.038 : en:Guns, Murderers & Cops
01:22:15.639 : en:Let the Party Begin
01:29:54.138 : en:The New Plan
01:35:17.628 : en:Doing It Big
01:37:32.972 : en:Clean Records
01:40:33.027 : en:End Titles
01:47:35.615 : en:




Скачать Двойной форсаж через торрент http://img11.lostpic.net/2018/10/03/77b7f42cd632793d56e3874ca3b49e39.jpg Скачать, смотреть онлайн Двойной форсаж бесплантно в хорошем качестве Описание: Бывший полицейский Брайан О`Коннер вместе с напарником Романом Пиарсом собираются перевезти крупную сумму «грязных» денег ... 10 10 4
Торрент: Зарегистрирован [2018-10-03 08:14] · скачан: 14 раз
Статус: √ проверено
Размер: 52.33 GB
Как cкачать? Как скачать Двойной форсаж через торрент | UTorrent

28-11-2019 20:33  


Отключить вcю реклaмy на сайте, в т.ч. и в плеере онлайн просмотра!

    Дорогой пользователь! Огромная просьба, поблагодарите релизера, оцените раздачу и оставьте свои комментарий, если Вы скачали Двойной форсаж через торрент бесплатно!!
    Комментировать посты могут только пользователи прошедшие не сложную регистрацию
    Показать сообщения:    


    Двойной форсаж через торрент
    Скачать бесплатно Двойной форсаж
    Двойной форсаж скачать торрент
    Двойной форсаж смотреть онлайн
    Cкачать фильм Двойной форсаж бесплатно
    Двойной форсаж скачать торрент в хорошем качестве
    Двойной форсаж смотреть онлайн бесплатно в хорошем качестве
    Вы не можете начинать темы
    Вы не можете отвечать на сообщения
    Вы не можете редактировать свои сообщения
    Вы не можете удалять свои сообщения
    Вы не можете голосовать в опросах
    Вы не можете прикреплять файлы к сообщениям
    Вы можете скачивать файлы
    Двойной форсаж / 2 Fast 2 Furious [2003, Боевик, триллер, криминал, UHD BDRemux 2160p] Дубляж+MVO+3xAVO смотреть онлайн, скачать торрент picoco.icu