Достать ножи: Стеклянная луковица

MVO

Добыча

Дубляж

Уэнсдэй

1 сезон

Тор

Дубляж

13 клиническая

1 сезон

Жестокая ночь

MVO

Одни из нас

1 сезон

Deluxe

pack

Рекомендуем

30

Пиратка

ВАЖНО

ВАЖНО

Ghostwire

Пиратка

jed

RePack

nioh2

RePack

RDR2

RePack

NEED FOR SPEED™ PAYBACK

RePack

скачать торрент

Кинопоиск HD

Острые козырьки 6 сезон

6 сезон

FAR CRY 6

RePack

скачать торрент

Лицензия

скачать торрент

MVO

1

1 сезон

скачать торрент

1 сезон

скачать торрент

Лицензия

  

Убийца 2. Против всех / Sicario 2: Soldado (Стефано Соллима) [2018, боевик, триллер, драма, UHD BDRip 2160p] [SDR] Дубляж [iTunes] + MVO [HDRezka] + AVO [Д. Есарев]

Убийца 2. Против всех через торрент piratbit.org

Размер: 32.88 GB | Добавлен: 4 года 4 мес. назад | Торрент скачан:50 раз
Смотреть онлайн | Скачать | Поддержите нас   

04-10-2018 17:44 Убийца 2. Против всех Скачать торрент  

Убийца 2. Против всех / Sicario 2: Soldado«Правила мертвы»
Год выпуска: 2018
Страна: США, Италия
Жанр: боевик, триллер, драма, криминал
Продолжительность: 02:02:24
Перевод: Дублированный (iTunes), Профессиональный многоголосый (HDRezka), авторский (Дмитрий Есарев)
Субтитры: Русские (Forced, Full), английские (Full, SDH)
Режиссер: Стефано Соллима
В ролях:

Бенисио Дель Торо (Alejandro), Джош Бролин (Matt Graver), Изабела Монер (Isabel Reyes), Джеффри Донован (Steve Forsing), Кэтрин Кинер (Cynthia Foards), Мануэль Рульфо (Gallo), Мэттью Модайн (James Riley), Шей Уигэм (Andy Wheeldon), Элиас Гарза (Miguel Hernandez), Ховард Фергюсон мл. (Troy), Дэвид Кастанеда (Hector), Жаклин Торрес (Blandina)
Описание:
Обстановка на американо-мексиканской границе накаляется, когда наркокартели начинают переправлять в США террористов. Чтобы дать им отпор федеральный агент Мэтт Грейвер вынужден вновь объединиться с не самым надежным напарником - Алехандро.
Рейтинг:

MPAA: R - Лицам до 17 лет обязательно присутствие взрослого
Качество: UHD BDRip 2160p | SDR
Формат: MKV
Видео: HEVC, 28.9 Mбит/с, 3840x1600, 23.976 кадр/с
Аудио#1: Russian: 48 kHz, AC3, 5.1 ch, 384 kbps avg |Дубляж, iTunes|
Аудио#2: Russian: 48 kHz, AC3, 2.0 ch, 192 kbps avg |Многоголосый закадровый, HDRezka|
Аудио#3: Russian: 48 kHz, DTS-HD MA, 7.1 ch, 2641 kbps avg |Одноголосый закадровый, Дмитрий Есарев (цензура)|
Аудио#4: Russian: 48 kHz, DTS-HD MA, 7.1 ch, 2638 kbps avg |Одноголосый закадровый, Дмитрий Есарев (ненормативная лексика)|
Аудио#5: English: 48 kHz, TrueHD, 7.1 ch, 2990 kbps avg
Аудио#6: English: 48 kHz, AC3, 5.1 ch, 640 kbps avg
Общая граница между США и Мексикой составляет 3200 км, которая довольно условна. Там нет ни колючей проволоки и пограничников с собаками. С американской стороны несколько лет назад начали постройку стены, но она не была достроена до конца. Вдоль границы ездит пограничный патруль, летают вертолеты в поисках нелегалов и установлены камеры видеонаблюдения. Одна из причин, почему выгодно держать границу открытой — это наркоторговля. Через границу переправляются тонны наркотиков из Мексики в США, крутятся миллионы долларов по обе стороны границы.
Вдоль границы с мексиканской стороны стоят несколько сотен гостевых домиков и схронов. Под великой недостроенной стеной мексиканцы вырыли множество подземных переходов. С мексиканской стороны переправка людей в США поставлена на коммерческую основу: каждую группу переводит через границу опытный проводник. Группа из 15−20 человек нанимает такого проводника. Потом все организованно собираются в «доме для гостей» и ожидают благоприятных условий для перехода. После пересечения границы проводник отчаливает обратно, а группа на свой страх и риск начинает путешествие уже по американской территории. Прогулку по раскаленной пустыне приятной не назовешь. В Аризоне ежегодно находят от 150 до 200 трупов мексиканцев, умерших от жары и жажды в пустыне Сонора.
Общее
Уникальный идентификатор : 188465896532064143002488149862828849177 (0x8DC9361BDD7C5A1B9B2D5B69CD39B819)
Полное имя : G:\Sicario.Day.of.the.Soldado.2018.2160p.BDRip.x265.10bit.SDR.Master5.mkv
Формат : Matroska
Версия формата : Version 4 / Version 2
Размер файла : 32,9 Гбайт
Продолжительность : 2 ч. 2 м.
Режим общего битрейта : Переменный
Общий поток : 38,5 Мбит/сек
Название фильма : Sicario.Day.of.the.Soldado.2018.2160p.BDRip.x265.10bit.SDR.Master5
Дата кодирования : UTC 2018-10-04 15:36:09
Программа кодирования : mkvmerge v7.9.0 ('Birds') 64bit
Библиотека кодирования : libebml v1.3.1 + libmatroska v1.4.2
Обложка : Yes
Attachments : cover.jpg

Видео
Идентификатор : 1
Формат : HEVC
Формат/Информация : High Efficiency Video Coding
Профиль формата : Main 10@L5.1@High
Идентификатор кодека : V_MPEGH/ISO/HEVC
Продолжительность : 2 ч. 2 м.
Битрейт : 28,9 Мбит/сек
Ширина : 3840 пикселей
Высота : 1600 пикселей
Соотношение сторон : 2,40:1
Режим частоты кадров : Постоянный
Частота кадров : 23,976 (24000/1001) кадра/сек
Цветовое пространство : YUV
Субдискретизация насыщенности : 4:2:0
Битовая глубина : 10 бит
Бит/(Пиксели*Кадры) : 0.196
Размер потока : 24,7 Гбайт (75%)
Заголовок : Sicario.Day.of.the.Soldado.2018.2160p.BDRip.x265.10bit.SDR.Master5
Библиотека кодирования : x265 2.8+54-79c76e42cb28:[Windows][GCC 7.3.1][64 bit] 10bit
Настройки программы : cpuid=1111039 / frame-threads=16 / numa-pools=20 / wpp / no-pmode / no-pme / no-psnr / no-ssim / log-level=2 / input-csp=1 / input-res=3840x1600 / interlace=0 / total-frames=0 / level-idc=51 / high-tier=1 / uhd-bd=0 / ref=3 / no-allow-non-conformance / repeat-headers / annexb / aud / hrd / info / hash=0 / no-temporal-layers / no-open-gop / min-keyint=1 / keyint=24 / gop-lookahead=0 / bframes=4 / b-adapt=2 / b-pyramid / bframe-bias=0 / rc-lookahead=25 / lookahead-slices=4 / scenecut=40 / radl=0 / no-intra-refresh / ctu=64 / min-cu-size=8 / no-rect / no-amp / max-tu-size=32 / tu-inter-depth=1 / tu-intra-depth=1 / limit-tu=0 / rdoq-level=0 / dynamic-rd=0.00 / no-ssim-rd / signhide / no-tskip / nr-intra=0 / nr-inter=0 / no-constrained-intra / strong-intra-smoothing / max-merge=2 / limit-refs=3 / no-limit-modes / me=1 / subme=2 / merange=57 / temporal-mvp / weightp / no-weightb / no-analyze-src-pics / deblock=0:0 / no-sao / no-sao-non-deblock / rd=3 / no-early-skip / rskip / no-fast-intra / no-tskip-fast / no-cu-lossless / no-b-intra / no-splitrd-skip / rdpenalty=0 / psy-rd=2.00 / psy-rdoq=0.00 / no-rd-refine / no-lossless / cbqpoffs=0 / crqpoffs=0 / rc=crf / crf=16.0 / qcomp=0.60 / qpstep=4 / stats-write=0 / stats-read=0 / vbv-maxrate=160000 / vbv-bufsize=160000 / vbv-init=0.9 / crf-max=0.0 / crf-min=0.0 / ipratio=1.40 / pbratio=1.30 / aq-mode=1 / aq-strength=1.00 / cutree / zone-count=0 / no-strict-cbr / qg-size=32 / no-rc-grain / qpmax=69 / qpmin=0 / no-const-vbv / sar=1 / overscan=0 / videoformat=5 / range=0 / colorprim=2 / transfer=2 / colormatrix=2 / chromaloc=0 / display-window=0 / max-cll=0,0 / min-luma=0 / max-luma=1023 / log2-max-poc-lsb=8 / vui-timing-info / vui-hrd-info / slices=1 / opt-qp-pps / opt-ref-list-length-pps / no-multi-pass-opt-rps / scenecut-bias=0.05 / no-opt-cu-delta-qp / no-aq-motion / no-hdr / no-hdr-opt / no-dhdr10-opt / no-idr-recovery-sei / analysis-reuse-level=5 / scale-factor=0 / refine-intra=0 / refine-inter=0 / refine-mv=0 / no-limit-sao / ctu-info=0 / no-lowpass-dct / refine-mv-type=0 / copy-pic=1 / max-ausize-factor=1.0 / no-dynamic-refine / no-single-sei
Default : Да
Forced : Нет

Аудио #1
Идентификатор : 2
Формат : AC-3
Формат/Информация : Audio Coding 3
Идентификатор кодека : A_AC3
Продолжительность : 2 ч. 2 м.
Вид битрейта : Постоянный
Битрейт : 384 Кбит/сек
Каналы : 6 каналов
Расположение каналов : Front: L C R, Side: L R, LFE
Частота : 48,0 КГц
Частота кадров : 31,250 кадров/сек (1536 SPF)
Битовая глубина : 16 бит
Метод сжатия : С потерями
Размер потока : 336 Мбайт (1%)
Заголовок : iTunes
Язык : Russian
ServiceKind/String : Complete Main
Default : Да
Forced : Да

Аудио #2
Идентификатор : 3
Формат : AC-3
Формат/Информация : Audio Coding 3
Идентификатор кодека : A_AC3
Продолжительность : 2 ч. 2 м.
Вид битрейта : Постоянный
Битрейт : 192 Кбит/сек
Каналы : 2 канала
Расположение каналов : Front: L R
Частота : 48,0 КГц
Частота кадров : 31,250 кадров/сек (1536 SPF)
Битовая глубина : 16 бит
Метод сжатия : С потерями
Размер потока : 168 Мбайт (0%)
Заголовок : MVO (HDRezka)
Язык : Russian
ServiceKind/String : Complete Main
Default : Нет
Forced : Нет

Аудио #3
Идентификатор : 4
Формат : DTS
Формат/Информация : Digital Theater Systems
Профиль формата : MA / Core
Идентификатор кодека : A_DTS
Продолжительность : 2 ч. 2 м.
Вид битрейта : Переменный / Постоянный
Битрейт : 2638 Кбит/сек / 1509 Кбит/сек
Каналы : 8 каналов / 6 каналов
Расположение каналов : Front: L C R, Side: L R, Back: L R, LFE / Front: L C R, Side: L R, LFE
Частота : 48,0 КГц
Частота кадров : 93,750 кадра/сек (512 SPF)
Битовая глубина : 16 бит
Метод сжатия : Без потерь / Lossy
Размер потока : 2,26 Гбайт (7%)
Заголовок : AVO Есарев цензура
Язык : Russian
Default : Нет
Forced : Нет

Аудио #4
Идентификатор : 5
Формат : DTS
Формат/Информация : Digital Theater Systems
Профиль формата : MA / Core
Идентификатор кодека : A_DTS
Продолжительность : 2 ч. 2 м.
Вид битрейта : Переменный / Постоянный
Битрейт : 2641 Кбит/сек / 1509 Кбит/сек
Каналы : 8 каналов / 6 каналов
Расположение каналов : Front: L C R, Side: L R, Back: L R, LFE / Front: L C R, Side: L R, LFE
Частота : 48,0 КГц
Частота кадров : 93,750 кадра/сек (512 SPF)
Битовая глубина : 16 бит
Метод сжатия : Без потерь / Lossy
Размер потока : 2,26 Гбайт (7%)
Заголовок : AVO Есарев без цензуры
Язык : Russian
Default : Нет
Forced : Нет

Аудио #5
Идентификатор : 6
Формат : TrueHD
Профиль формата : TrueHD+Atmos / TrueHD
Идентификатор кодека : A_TRUEHD
Продолжительность : 2 ч. 2 м.
Вид битрейта : Переменный
Битрейт : 2990 Кбит/сек
Максимальный битрейт : 5031 Кбит/сек
Каналы : Object Based / 8 каналов
Расположение каналов : Object Based / Front: L C R, Side: L R, Back: L R, LFE
Частота : / 48,0 КГц
Частота кадров : 1200,000 кадров/сек (40 SPF)
Метод сжатия : Без потерь
Размер потока : 2,56 Гбайт (8%)
Заголовок : Original
Язык : English
Default : Нет
Forced : Нет

Аудио #6
Идентификатор : 7
Формат : AC-3
Формат/Информация : Audio Coding 3
Идентификатор кодека : A_AC3
Продолжительность : 2 ч. 2 м.
Вид битрейта : Постоянный
Битрейт : 640 Кбит/сек
Каналы : 6 каналов
Расположение каналов : Front: L C R, Side: L R, LFE
Частота : 48,0 КГц
Частота кадров : 31,250 кадров/сек (1536 SPF)
Битовая глубина : 16 бит
Метод сжатия : С потерями
Размер потока : 560 Мбайт (2%)
Язык : English
ServiceKind/String : Complete Main
Default : Нет
Forced : Нет

Текст #1
Идентификатор : 8
Формат : UTF-8
Идентификатор кодека : S_TEXT/UTF8
Идентификатор кодека/Информация : UTF-8 Plain Text
Продолжительность : 1 ч. 53 м.
Битрейт : 5 бит/сек
ElementCount : 153
Размер потока : 4,84 Кбайт (0%)
Заголовок : Forced
Язык : Russian
Default : Да
Forced : Да

Текст #2
Идентификатор : 9
Формат : UTF-8
Идентификатор кодека : S_TEXT/UTF8
Идентификатор кодека/Информация : UTF-8 Plain Text
Продолжительность : 1 ч. 53 м.
Битрейт : 54 бит/сек
ElementCount : 966
Размер потока : 45,2 Кбайт (0%)
Заголовок : Full
Язык : Russian
Default : Нет
Forced : Нет

Текст #3
Идентификатор : 10
Формат : UTF-8
Идентификатор кодека : S_TEXT/UTF8
Идентификатор кодека/Информация : UTF-8 Plain Text
Продолжительность : 1 ч. 52 м.
Битрейт : 36 бит/сек
ElementCount : 840
Размер потока : 30,1 Кбайт (0%)
Заголовок : Full
Язык : English
Default : Нет
Forced : Нет

Текст #4
Идентификатор : 11
Формат : UTF-8
Идентификатор кодека : S_TEXT/UTF8
Идентификатор кодека/Информация : UTF-8 Plain Text
Продолжительность : 2 ч. 1 м.
Битрейт : 40 бит/сек
ElementCount : 1062
Размер потока : 36,0 Кбайт (0%)
Заголовок : SDH
Язык : English
Default : Нет
Forced : Нет

Меню
00:00:00.000 : en:Chapter 01
00:06:38.189 : en:Chapter 02
00:14:45.593 : en:Chapter 03
00:18:48.502 : en:Chapter 04
00:27:08.335 : en:Chapter 05
00:34:08.964 : en:Chapter 06
00:42:28.671 : en:Chapter 07
00:51:10.442 : en:Chapter 08
01:00:58.071 : en:Chapter 09
01:09:20.114 : en:Chapter 10
01:14:26.796 : en:Chapter 11
01:23:24.958 : en:Chapter 12
01:28:41.358 : en:Chapter 13
01:35:38.900 : en:Chapter 14
01:41:44.348 : en:Chapter 15
01:46:15.494 : en:Chapter 16



Скачать Убийца 2. Против всех через торрент https://d.radikal.ru/d07/1810/1b/56d0ef2b68e9.png Скачать, смотреть онлайн Убийца 2. Против всех бесплантно в хорошем качестве Описание: Обстановка на американо-мексиканской границе накаляется, когда наркокартели начинают переправлять в США террористов. Чтобы дать ... 10 10 1
Торрент: Зарегистрирован [2018-10-04 17:44] · скачан: 50 раз
Статус: √ проверено
Размер: 32.88 GB
Как cкачать? Как скачать Убийца 2. Против всех через торрент | UTorrent

% Раздел Тема Автор DL S | L
Фильмы [HD 720p, 1080p] (Хороший звук DUB, MVO) [ 12.44 GB ] Убийца 2. Против всех / Sicario 2: Soldado | iTunes | 1080p sheker187 Скачать
1 | 0
Фильмы [HD 720p, 1080p] (Хороший звук DUB, MVO) [ 2.72 GB ] Убийца 2. Против всех / Sicario: Day of the Soldado | iTunes | 1080p, HEVC (10bit Мичман37 Скачать
1 | 0
Фильмы 2018 [DVDrip, WEB-DLRip, HDrip] (DUB, MVO) [ 1.46 GB ] Убийца 2. Против всех / Sicario 2: Soldado | Лицензия | BDRip Twi7ter Скачать
2 | 0
Фильмы [HD 720p, 1080p] (Хороший звук DUB, MVO) [ 5.11 GB ] Убийца 2. Против всех / Sicario 2: Soldado | iTunes | 1080p, (10bit bober100 Скачать
2 | 0
Фильмы 2018 [DVDrip, WEB-DLRip, HDrip] (DUB, MVO) [ 3.21 GB ] Убийца 2. Против всех / Sicario 2: Soldado | iTunes | BDRip-AVC bober100 Скачать
2 | 0
Ultra HD (UHD: 2K, 4K, 8K) [ 56.55 GB ] Убийца 2. Против всех / Sicario 2: Soldado | iTunes | 2160p sheker187 Скачать
1 | 0
Фильмы 2018 [DVDrip, WEB-DLRip, HDrip] (DUB, MVO) [ 2.13 GB ] Убийца 2. Против всех / Sicario 2: Soldado | Лицензия | BDRip Twi7ter Скачать
1 | 0

28-11-2019 20:33  


Отключить вcю реклaмy на сайте, в т.ч. и в плеере онлайн просмотра!

    Дорогой пользователь! Огромная просьба, поблагодарите релизера, оцените раздачу и оставьте свои комментарий, если Вы скачали Убийца 2. Против всех через торрент бесплатно!!
    Комментировать посты могут только пользователи прошедшие не сложную регистрацию
    Показать сообщения:    


    Убийца 2. Против всех через торрент
    Скачать бесплатно Убийца 2. Против всех
    Убийца 2. Против всех скачать торрент
    Убийца 2. Против всех смотреть онлайн
    Cкачать фильм Убийца 2. Против всех бесплатно
    Убийца 2. Против всех скачать торрент в хорошем качестве
    Убийца 2. Против всех смотреть онлайн бесплатно в хорошем качестве
    Вы не можете начинать темы
    Вы не можете отвечать на сообщения
    Вы не можете редактировать свои сообщения
    Вы не можете удалять свои сообщения
    Вы не можете голосовать в опросах
    Вы не можете прикреплять файлы к сообщениям
    Вы можете скачивать файлы
    Убийца 2. Против всех / Sicario 2: Soldado [2018, боевик, триллер, драма, UHD BDRip 2160p] [SDR] Дубляж [iTunes] + MVO [HDRezka] + AVO [Д. Есарев] смотреть онлайн, скачать торрент picoco.icu