Достать ножи: Стеклянная луковица

MVO

Добыча

Дубляж

Уэнсдэй

1 сезон

Тор

Дубляж

13 клиническая

1 сезон

Жестокая ночь

MVO

Одни из нас

1 сезон

Deluxe

pack

Рекомендуем

30

Пиратка

ВАЖНО

ВАЖНО

Ghostwire

Пиратка

jed

RePack

nioh2

RePack

RDR2

RePack

NEED FOR SPEED™ PAYBACK

RePack

скачать торрент

Кинопоиск HD

Острые козырьки 6 сезон

6 сезон

FAR CRY 6

RePack

скачать торрент

Лицензия

скачать торрент

MVO

1

1 сезон

скачать торрент

1 сезон

скачать торрент

Лицензия

  

Люди Икс / X-Men (Брайан Сингер) [2000, фантастика, боевик, приключения, UHD BDRemux 2160p] Дубляж + 2xMVO + DVO + 5xAVO

Люди Икс через торрент piratbit.org

Размер: 56.14 GB | Добавлен: 4 года 3 мес. назад | Торрент скачан:37 раз
Смотреть онлайн | Скачать | Поддержите нас   

05-10-2018 13:32 Люди Икс Скачать торрент  

Люди Икс / X-Men«Доверяй немногим, бойся остальных»
Год выпуска: 2000
Страна: США
Жанр: фантастика, боевик, приключения
Продолжительность: 01:44:20
Перевод: Дублированный, профессиональный многоголосый, профессиональный двухголосый, авторский
Субтитры: Русские, английские, украинские
Режиссер: Брайан Сингер
В ролях:

Хью Джекман (Logan / Wolverine), Патрик Стюарт (Professor Charles Xavier), Иэн МакКеллен (Eric Lensherr / Magneto), Фамке Янссен (Jean Grey), Джеймс Марсден (Scott Summers / Cyclops), Холли Берри (Ororo Munroe / Storm), Анна Пэкуин (Rogue), Шон Эшмор (Bobby Drake / Iceman), Ребекка Ромейн (Mystique), Тайлер Мэйн (Sabretooth), Рэй Парк (Toad), Брюс Дэвисон (Senator Kelly)
Описание:
Они - дети атомного века, сверхлюди, новое звено в цепи эволюции. Каждый из них был рождён в результате уникальной генетической мутации, наделившей их с детства необыкновенными способностями. Под руководством профессора Чарльза Ксавьера, телепата с мировым именем, одарённые ученики научились контролировать и управлять своими удивительными способностями в интересах человечества.
Рейтинг:

MPAA: PG-13 - Детям до 13 лет просмотр не желателен
Качество: UHD BDRemux 2160p
Формат: MKV
Видео: HEVC, HDR, 63.8 Мбит/с, 3840x2160, 23.976 кадр/с
Аудио #1: RUS / DTS-HD MA / 5.1 / 48 kHz / 3728 kbps / Дубляж
Аудио #2: RUS / AC3 / 5.1 / 48 kHz / 640 kbps / Киномания_Многоголосый
Аудио #3: RUS / AC3 / 5.1 / 48 kHz / 640 kbps / П.Гланц и И.Королева
Аудио #4: RUS / AC3 / 5.1 / 48 kHz / 640 kbps / А.Гаврилов
Аудио #5: RUS / DTS / 5.1 / 48 kHz / 1510 kbps / Ю.Живов
Аудио #6: RUS / AC3 / 5.1 / 48 kHz / 640 kbps / С.Кузнецов
Аудио #7: RUS / AC3 / 5.1 / 48 kHz / 640 kbps / А.Наследников
Аудио #8: RUS / AC3 / 2.0 / 48 kHz / 192 kbps / НТВ_Многоголосый
Аудио #9: RUS / AC3 / 2.0 / 48 kHz / 192 kbps / А.Дольский
Аудио #10: UKR / AC3 / 2.0 / 48 kHz / 192 kbps / Новый канал_Многоголосый
Аудио #11: ENG / DTS-HD MA / 5.1 / 48 kHz / 3840 kbps - Оригинал
Аудио #12: ENG / AC3 / 2.0 / 48 kHz / 224 kbps / Commentary
Навигация по главам: есть
Complete name : D:\Movies\X-Men.2000.2160p.BluRay.REMUX.HEVC.DTS-HD.MA.5.1-SpaceHD13.mkv
Format : Matroska
Format version : Version 4 / Version 2
File size : 56.1 GiB
Duration : 1 h 44 min
Overall bit rate mode : Variable
Overall bit rate : 77.0 Mb/s
Movie name : UHD 2160 || Release by SpaceHD13
Encoded date : UTC 2018-10-04 23:11:19
Writing application : mkvmerge v27.0.0 ('Metropolis') 64-bit
Writing library : libebml v1.3.6 + libmatroska v1.4.9
Cover : Yes
Attachments : cover.jpg

Video
ID : 1
Format : HEVC
Format/Info : High Efficiency Video Coding
Commercial name : HDR10
Format profile : Main 10@L5.1@High
Codec ID : V_MPEGH/ISO/HEVC
Duration : 1 h 44 min
Bit rate : 63.8 Mb/s
Width : 3 840 pixels
Height : 2 160 pixels
Display aspect ratio : 16:9
Frame rate mode : Constant
Frame rate : 23.976 (24000/1001) FPS
Color space : YUV
Chroma subsampling : 4:2:0 (Type 2)
Bit depth : 10 bits
Bits/(Pixel*Frame) : 0.321
Stream size : 46.5 GiB (83%)
Title : X-Men.2000.2160p.BluRay.REMUX.HEVC.DTS-HD.MA.5.1-SpaceHD13
Writing library : ATEME Titan File 3.8.16 (4.8.16.0)
Default : Yes
Forced : No
Color range : Limited
Color primaries : BT.2020
Transfer characteristics : PQ
Matrix coefficients : BT.2020 non-constant
Mastering display color pri : Display P3
Mastering display luminance : min: 0.0050 cd/m2, max: 1000 cd/m2

Audio #1
ID : 2
Format : DTS XLL
Format/Info : Digital Theater Systems
Commercial name : DTS-HD Master Audio
Codec ID : A_DTS
Duration : 1 h 44 min
Bit rate mode : Variable
Bit rate : 3 728 kb/s
Channel(s) : 6 channels
Channel layout : C L R Ls Rs LFE
Sampling rate : 48.0 kHz
Frame rate : 93.750 FPS (512 SPF)
Bit depth : 24 bits
Compression mode : Lossless
Stream size : 2.72 GiB (5%)
Title : [Дубляж]
Language : Russian
Default : Yes
Forced : No

Audio #2
ID : 3
Format : AC-3
Format/Info : Audio Coding 3
Commercial name : Dolby Digital
Codec ID : A_AC3
Duration : 1 h 44 min
Bit rate mode : Constant
Bit rate : 640 kb/s
Channel(s) : 6 channels
Channel layout : L R C LFE Ls Rs
Sampling rate : 48.0 kHz
Frame rate : 31.250 FPS (1536 SPF)
Bit depth : 16 bits
Compression mode : Lossy
Stream size : 478 MiB (1%)
Title : [Многоголосый]
Language : Russian
Service kind : Complete Main
Default : No
Forced : No

Audio #3
ID : 4
Format : AC-3
Format/Info : Audio Coding 3
Commercial name : Dolby Digital
Codec ID : A_AC3
Duration : 1 h 44 min
Bit rate mode : Constant
Bit rate : 640 kb/s
Channel(s) : 6 channels
Channel layout : L R C LFE Ls Rs
Sampling rate : 48.0 kHz
Frame rate : 31.250 FPS (1536 SPF)
Bit depth : 16 bits
Compression mode : Lossy
Stream size : 478 MiB (1%)
Title : [П.Гланц и И.Королева]
Language : Russian
Service kind : Complete Main
Default : No
Forced : No

Audio #4
ID : 5
Format : AC-3
Format/Info : Audio Coding 3
Commercial name : Dolby Digital
Codec ID : A_AC3
Duration : 1 h 44 min
Bit rate mode : Constant
Bit rate : 640 kb/s
Channel(s) : 6 channels
Channel layout : L R C LFE Ls Rs
Sampling rate : 48.0 kHz
Frame rate : 31.250 FPS (1536 SPF)
Bit depth : 16 bits
Compression mode : Lossy
Stream size : 478 MiB (1%)
Title : [А.Гаврилов]
Language : Russian
Service kind : Complete Main
Default : No
Forced : No

Audio #5
ID : 6
Format : DTS
Format/Info : Digital Theater Systems
Codec ID : A_DTS
Duration : 1 h 44 min
Bit rate mode : Constant
Bit rate : 1 510 kb/s
Channel(s) : 6 channels
Channel layout : C L R Ls Rs LFE
Sampling rate : 48.0 kHz
Frame rate : 93.750 FPS (512 SPF)
Bit depth : 24 bits
Compression mode : Lossy
Stream size : 1.10 GiB (2%)
Title : [Ю.Живов]
Language : Russian
Default : No
Forced : No

Audio #6
ID : 7
Format : AC-3
Format/Info : Audio Coding 3
Commercial name : Dolby Digital
Codec ID : A_AC3
Duration : 1 h 44 min
Bit rate mode : Constant
Bit rate : 640 kb/s
Channel(s) : 6 channels
Channel layout : L R C LFE Ls Rs
Sampling rate : 48.0 kHz
Frame rate : 31.250 FPS (1536 SPF)
Bit depth : 16 bits
Compression mode : Lossy
Stream size : 478 MiB (1%)
Title : [С.Кузнецов]
Language : Russian
Service kind : Complete Main
Default : No
Forced : No

Audio #7
ID : 8
Format : AC-3
Format/Info : Audio Coding 3
Commercial name : Dolby Digital
Codec ID : A_AC3
Duration : 1 h 44 min
Bit rate mode : Constant
Bit rate : 640 kb/s
Channel(s) : 6 channels
Channel layout : L R C LFE Ls Rs
Sampling rate : 48.0 kHz
Frame rate : 31.250 FPS (1536 SPF)
Bit depth : 16 bits
Compression mode : Lossy
Stream size : 478 MiB (1%)
Title : [А.Наследников]
Language : Russian
Service kind : Complete Main
Default : No
Forced : No

Audio #8
ID : 9
Format : AC-3
Format/Info : Audio Coding 3
Commercial name : Dolby Digital
Codec ID : A_AC3
Duration : 1 h 44 min
Bit rate mode : Constant
Bit rate : 192 kb/s
Channel(s) : 2 channels
Channel layout : L R
Sampling rate : 48.0 kHz
Frame rate : 31.250 FPS (1536 SPF)
Bit depth : 16 bits
Compression mode : Lossy
Stream size : 143 MiB (0%)
Title : [Многоголосый НТВ]
Language : Russian
Service kind : Complete Main
Default : No
Forced : No

Audio #9
ID : 10
Format : AC-3
Format/Info : Audio Coding 3
Commercial name : Dolby Digital
Codec ID : A_AC3
Duration : 1 h 44 min
Bit rate mode : Constant
Bit rate : 192 kb/s
Channel(s) : 2 channels
Channel layout : L R
Sampling rate : 48.0 kHz
Frame rate : 31.250 FPS (1536 SPF)
Bit depth : 16 bits
Compression mode : Lossy
Stream size : 143 MiB (0%)
Title : [А.Дольский]
Language : Russian
Service kind : Complete Main
Default : No
Forced : No

Audio #10
ID : 11
Format : AC-3
Format/Info : Audio Coding 3
Commercial name : Dolby Digital
Codec ID : A_AC3
Duration : 1 h 44 min
Bit rate mode : Constant
Bit rate : 192 kb/s
Channel(s) : 2 channels
Channel layout : L R
Sampling rate : 48.0 kHz
Frame rate : 31.250 FPS (1536 SPF)
Bit depth : 16 bits
Compression mode : Lossy
Stream size : 143 MiB (0%)
Title : [Многоголосый Новый канал]
Language : Ukrainian
Service kind : Complete Main
Default : No
Forced : No

Audio #11
ID : 12
Format : DTS XLL
Format/Info : Digital Theater Systems
Commercial name : DTS-HD Master Audio
Codec ID : A_DTS
Duration : 1 h 44 min
Bit rate mode : Variable
Bit rate : 3 812 kb/s
Channel(s) : 6 channels
Channel layout : C L R Ls Rs LFE
Sampling rate : 48.0 kHz
Frame rate : 93.750 FPS (512 SPF)
Bit depth : 24 bits
Compression mode : Lossless
Stream size : 2.78 GiB (5%)
Title : [Original]
Language : English
Default : No
Forced : No

Audio #12
ID : 13
Format : AC-3
Format/Info : Audio Coding 3
Commercial name : Dolby Digital
Codec ID : A_AC3
Duration : 1 h 44 min
Bit rate mode : Constant
Bit rate : 224 kb/s
Channel(s) : 2 channels
Channel layout : L R
Sampling rate : 48.0 kHz
Frame rate : 31.250 FPS (1536 SPF)
Bit depth : 16 bits
Compression mode : Lossy
Stream size : 167 MiB (0%)
Title : [COMMENTARY]
Language : English
Service kind : Complete Main
Default : No
Forced : No

Text #1
ID : 14
Format : PGS
Muxing mode : zlib
Codec ID : S_HDMV/PGS
Codec ID/Info : Picture based subtitle format used on BDs/HD-DVDs
Duration : 1 h 21 min
Bit rate : 189 b/s
Count of elements : 6
Stream size : 113 KiB (0%)
Title : Forced
Language : Russian
Default : Yes
Forced : No

Text #2
ID : 15
Format : PGS
Muxing mode : zlib
Codec ID : S_HDMV/PGS
Codec ID/Info : Picture based subtitle format used on BDs/HD-DVDs
Duration : 1 h 34 min
Bit rate : 31.3 kb/s
Count of elements : 1222
Stream size : 21.1 MiB (0%)
Title : Full
Language : Russian
Default : No
Forced : No

Text #3
ID : 16
Format : PGS
Muxing mode : zlib
Codec ID : S_HDMV/PGS
Codec ID/Info : Picture based subtitle format used on BDs/HD-DVDs
Duration : 1 h 34 min
Bit rate : 21.0 kb/s
Count of elements : 1259
Stream size : 14.2 MiB (0%)
Title : Full
Language : Russian
Default : No
Forced : No

Text #4
ID : 17
Format : PGS
Muxing mode : zlib
Codec ID : S_HDMV/PGS
Codec ID/Info : Picture based subtitle format used on BDs/HD-DVDs
Duration : 1 h 44 min
Bit rate : 55.3 kb/s
Count of elements : 2851
Stream size : 41.2 MiB (0%)
Title : COMMENTARY
Language : Russian
Default : No
Forced : No

Text #5
ID : 18
Format : PGS
Muxing mode : zlib
Codec ID : S_HDMV/PGS
Codec ID/Info : Picture based subtitle format used on BDs/HD-DVDs
Duration : 1 h 43 min
Bit rate : 33.5 kb/s
Count of elements : 2059
Stream size : 24.8 MiB (0%)
Title : COMMENTARY
Language : Russian
Default : No
Forced : No

Text #6
ID : 19
Format : PGS
Muxing mode : zlib
Codec ID : S_HDMV/PGS
Codec ID/Info : Picture based subtitle format used on BDs/HD-DVDs
Duration : 1 h 21 min
Bit rate : 178 b/s
Count of elements : 6
Stream size : 106 KiB (0%)
Title : Forced
Language : Ukrainian
Default : No
Forced : No

Text #7
ID : 20
Format : PGS
Muxing mode : zlib
Codec ID : S_HDMV/PGS
Codec ID/Info : Picture based subtitle format used on BDs/HD-DVDs
Duration : 1 h 43 min
Bit rate : 26.0 kb/s
Count of elements : 1228
Stream size : 19.3 MiB (0%)
Title : Full
Language : Ukrainian
Default : No
Forced : No

Text #8
ID : 21
Format : PGS
Muxing mode : zlib
Codec ID : S_HDMV/PGS
Codec ID/Info : Picture based subtitle format used on BDs/HD-DVDs
Duration : 1 h 34 min
Bit rate : 36.4 kb/s
Count of elements : 1494
Stream size : 24.5 MiB (0%)
Language : English
Default : No
Forced : No

Text #9
ID : 22
Format : PGS
Muxing mode : zlib
Codec ID : S_HDMV/PGS
Codec ID/Info : Picture based subtitle format used on BDs/HD-DVDs
Duration : 1 h 44 min
Bit rate : 63.8 kb/s
Count of elements : 2974
Stream size : 47.5 MiB (0%)
Language : English
Default : No
Forced : No

Menu
00:00:00.000 : :Chapter 1
00:01:19.287 : :Chapter 2
00:04:18.132 : :Chapter 3
00:05:56.022 : :Chapter 4
00:07:56.058 : :Chapter 5
00:09:23.688 : :Chapter 6
00:11:37.697 : :Chapter 7
00:14:38.502 : :Chapter 8
00:18:01.663 : :Chapter 9
00:20:49.665 : :Chapter 10
00:22:09.119 : :Chapter 11
00:23:58.645 : :Chapter 12
00:28:45.849 : :Chapter 13
00:29:55.168 : :Chapter 14
00:32:06.507 : :Chapter 15
00:33:37.682 : :Chapter 16
00:36:37.236 : :Chapter 17
00:38:25.177 : :Chapter 18
00:41:11.886 : :Chapter 19
00:44:13.859 : :Chapter 20
00:45:50.456 : :Chapter 21
00:48:41.543 : :Chapter 22
00:50:22.436 : :Chapter 23
00:52:05.831 : :Chapter 24
00:54:58.211 : :Chapter 25
00:58:11.154 : :Chapter 26
00:59:19.764 : :Chapter 27
01:01:54.961 : :Chapter 28
01:03:17.627 : :Chapter 29
01:06:02.375 : :Chapter 30
01:08:39.782 : :Chapter 31
01:12:21.378 : :Chapter 32
01:18:03.804 : :Chapter 33
01:20:53.223 : :Chapter 34
01:24:28.063 : :Chapter 35
01:26:58.421 : :Chapter 36
01:29:08.509 : :Chapter 37
01:31:47.210 : :Chapter 38
01:33:12.878 : :Chapter 39
01:35:12.123 : :Chapter 40



Скачать Люди Икс через торрент https://b.radikal.ru/b26/1809/8f/e28e87907916.png Скачать, смотреть онлайн Люди Икс бесплантно в хорошем качестве Описание: Они - дети атомного века, сверхлюди, новое звено в цепи эволюции. Каждый из них был рождён в результате уникальной генетической ... 10 10 3
Info! Золотая раздача, скачанное не засчитывается.
Торрент: Зарегистрирован [2018-10-05 13:32] · скачан: 37 раз
Статус: √ проверено
Размер: 56.14 GB
Как cкачать? Как скачать Люди Икс через торрент | UTorrent

28-11-2019 20:33  


Отключить вcю реклaмy на сайте, в т.ч. и в плеере онлайн просмотра!

    Дорогой пользователь! Огромная просьба, поблагодарите релизера, оцените раздачу и оставьте свои комментарий, если Вы скачали Люди Икс через торрент бесплатно!!
    Комментировать посты могут только пользователи прошедшие не сложную регистрацию
    Показать сообщения:    


    Люди Икс через торрент
    Скачать бесплатно Люди Икс
    Люди Икс скачать торрент
    Люди Икс смотреть онлайн
    Cкачать фильм Люди Икс бесплатно
    Люди Икс скачать торрент в хорошем качестве
    Люди Икс смотреть онлайн бесплатно в хорошем качестве
    Вы не можете начинать темы
    Вы не можете отвечать на сообщения
    Вы не можете редактировать свои сообщения
    Вы не можете удалять свои сообщения
    Вы не можете голосовать в опросах
    Вы не можете прикреплять файлы к сообщениям
    Вы можете скачивать файлы
    Люди Икс / X-Men [2000, фантастика, боевик, приключения, UHD BDRemux 2160p] Дубляж + 2xMVO + DVO + 5xAVO смотреть онлайн, скачать торрент picoco.icu