Мега распродажа FORZA HORIZON 4 ULTIMATE+ВСЕ DLC+ОНЛАЙН всего за 499р. 349 руб. (супер цена). Внимание количество ограничено!!!

iTunes

1+1

iTunes

мы

iTunes

1

1 сезон

Чернобыль

1 сезон

Ральф против интернета

Лицензия

ПШазам

8 сезон

Игра престолов

Лицензия

30
pack

ВАЖНО

!!Акция!!

Alien_RageХит недели

RePack

Resident Evil 21

ИГРА 18+

pack

RePack

Metro:Exodus

!!Акция!!

Alien_Rage

RePack

fifa19

RePack

Assassins Creed: Odyssey

RePack

NEED FOR SPEED™ PAYBACK

3 сезон

9 сезон

Бесстыжие 9 сезон

Все сериалы

все сериалы на PB.wtf

RePack

FAR CRY 5
Ребята, катастрофически не хватает 2730р. для оплаты серверов за ИЮНЬ (всвязи с блокировками трафик упал в 3 раза), 1-2р., выручайте.
  

Волшебный бриллиант (2 части из 2) / Nagina, Nigahen: Nagina Part II (Хармеш Малхотра) [1986-1989 г., Семейная мелодрама, мистика, DVDRip, Профессиональный (многоголосый)] piratbit.org

Волшебный бриллиант через торрент piratbit.org

Размер: 2.74 GB | Добавлен: 9 мес. назад | Торрент скачан:7 раз
Скачать  

06-10-2018 04:52 Волшебный бриллиант Скачать торрент  

Волшебный бриллиант / Nagina Nigahen: Nagina Part II
Год выпуска: 1986-1989
Страна: Индия
Жанр: Семейная мелодрама, мистика
Продолжительность: 2 x ~ 02:18:37
Перевод: Профессиональный (многоголосый)
Субтитры: Отсутствуют

Режиссер: Хармеш Малхотра

rating

В ролях: Шридеви, Риши Капур, Амрипш Пури, Прем Чопра, Санни Деол, Анупам Кхер, Аруна Ирани, Анджана Мумтаз, Джагдип, Дев Шарма, Дипак Гатак, Шабана

Описание: Волшебный бриллиант: Несколько лет назад в доме богатого помещика произошла трагедия. Умер глава дома, а его сын с психическим заболеванием был отправлен на лечение за границу в Европу. Прошло пятнадцать лет. Раджу (Шаши Капур) возвращается в свое родное поместье. Здесь его ожидает любящая мать, сосед-компаньон отца, мечтающий выдать за Раджу свою взрослую дочь, и море проблем. Основная проблема для молодого хозяина - это загадка старого поместья, мимо которого невозможно пройти или проехать без проблем. Раджу постоянно слышатся звуки ножных браслетов неизвестной красавицы, обитающей в развалинах. И однажды, несмотря на уговоры матери, Раджу отправляется в старое поместье, где неожиданно встречает красавицу Раджни (ее великолепно играет Шридеви). Эта встреча кардинально изменила жизнь Раджу...

Волшебный бриллиант 2: После гибели обоих родителей, маленькую девочку берет на воспитание дядя. Долгие годы Нилам живет вдали от родного дома, а когда возвращается, слуги поражаются ее необыкновенным сходством с покойной матерью.Но не только слуги с радостью встречают свою хозяйку. Две змеи, оберегавшие мать Нилам становятся и ее хранительницами. Девушка наследует камень Мани, принадлежавший ее матери и это может принести ей несчастье.Колдун Гаракх Натх уже давно охотится за камнем и придумывает не один план, чтобы завладеть им. Но кобры всегда вовремя приходят на помощь девушке...

Качество: DVDRip
Формат: AVI
Видео кодек: DivX
Аудио кодек: AC3
Видео: DivX, 720x544 , 29.9fps, 1224 Kbps
Аудио#1: AC3 , 2 ch , 48 kHz , 192 kbps
скриншот   скриншот   скриншот   скриншот   скриншот   скриншот   скриншот   скриншот  

Общее
Полное имя : D:Volshebnij.Brilliant.(2.chasti.iz.2).1986-1989.DivX.DVDRip.Kinozal.Tv\Volshebnij.Brilliant.1986.DivX.DVDRip.Kinozal.Tv.avi
Формат : AVI
Формат/Информация : Audio Video Interleave
Размер файла : 1,37 Гбайт
Продолжительность : 2 ч. 17 м.
Общий поток : 1423 Кбит/сек
Программа кодирования : VirtualDubMod 1.5.4.1 (build 2178/release)
Библиотека кодирования : VirtualDubMod build 2178/release

Видео
Идентификатор : 0
Формат : MPEG-4 Visual
Параметр BVOP формата : 1
Параметр QPel формата : Нет
Параметр GMC формата : Без точки перехода
Параметр матрицы формата : Default (H.263)
Режим смешивания : Сжатый битовый поток
Идентификатор кодека : DX50
Идентификатор кодека/Подсказка : DivX 5
Продолжительность : 2 ч. 17 м.
Битрейт : 1224 Кбит/сек
Ширина : 720 пикселей
Высота : 544 пикселя
Соотношение сторон : 4:3
Частота кадров : 29,970 кадров/сек
Цветовое пространство : YUV
Субдискретизация насыщенности : 4:2:0
Битовая глубина : 8 бит
Тип развёртки : Прогрессивная
Метод сжатия : С потерями
Бит/(Пиксели*Кадры) : 0.104
Размер потока : 1,18 Гбайт (86%)
Библиотека кодирования : DivX 6.1.1 (UTC 2006-02-01)

Аудио
Идентификатор : 1
Формат : AC-3
Формат/Информация : Audio Coding 3
Расширение режима : CM (complete main)
Параметр Endianness формата : Big
Идентификатор кодека : 2000
Продолжительность : 2 ч. 17 м.
Вид битрейта : Постоянный
Битрейт : 192 Кбит/сек
Каналы : 2 канала
Расположение каналов : Front: L R
Частота : 48,0 КГц
Битовая глубина : 16 бит
Метод сжатия : С потерями
Размер потока : 189 Мбайт (13%)
Выравнивание : Разделение по промежуткам
Продолжительность промежутка : 96 мс. (2,88 видеокадра)
Время предзагрузки промежутка : 96 мс.
Язык : Russian

piratbit.org



Скачать Волшебный бриллиант через торрент http://pic1.kartinco.top/images/11/83626.jpg Скачать фильм Волшебный бриллиант через торрент бесплантно в хорошем качестве Описание: Волшебный бриллиант: Несколько лет назад в доме богатого помещика произошла трагедия. Умер глава дома, а его сын с психическим ... 5.5 10 2
Info! Золотая раздача, скачанное не засчитывается.
Торрент: Зарегистрирован [2018-10-06 04:52] · скачан: 7 раз
Статус: √ проверено
Размер: 2.74 GB
Как cкачать? Как скачать Волшебный бриллиант через торрент | qTorrent


>> Регистрируемся здесь <<






Отзывы и комментарии о схеме читаем и пишем здесь: ---> Отзывы и комментарии о схеме

Новые благодарочки в телеграм довольных пользователей:
скриншот   скриншот   скриншот   скриншот   скриншот
    Дорогой пользователь! Огромная просьба, поблагодарите релизера, оцените раздачу и оставьте свои комментарий, если Вы скачали Волшебный бриллиант через торрент бесплатно! Внесите свою лепту в развитие PiratBit!
    Комментировать посты могут только пользователи прошедшие не сложную регистрацию
    Показать сообщения:    

    Волшебный бриллиант через торрент
    Скачать бесплатно Волшебный бриллиант
    Волшебный бриллиант скачать торрент
    Волшебный бриллиант смотреть онлайн
    Cкачать фильм Волшебный бриллиант бесплатно
    Волшебный бриллиант скачать торрент в хорошем качестве
    Волшебный бриллиант смотреть онлайн бесплатно в хорошем качестве


    Вы не можете начинать темы
    Вы не можете отвечать на сообщения
    Вы не можете редактировать свои сообщения
    Вы не можете удалять свои сообщения
    Вы не можете голосовать в опросах
    Вы не можете прикреплять файлы к сообщениям
    Вы можете скачивать файлы