Достать ножи: Стеклянная луковица

MVO

Добыча

Дубляж

Уэнсдэй

1 сезон

Тор

Дубляж

13 клиническая

1 сезон

Жестокая ночь

MVO

Одни из нас

1 сезон

Deluxe

pack

Рекомендуем

30

Пиратка

ВАЖНО

ВАЖНО

Ghostwire

Пиратка

jed

RePack

nioh2

RePack

RDR2

RePack

NEED FOR SPEED™ PAYBACK

RePack

скачать торрент

Кинопоиск HD

Острые козырьки 6 сезон

6 сезон

FAR CRY 6

RePack

скачать торрент

Лицензия

скачать торрент

MVO

1

1 сезон

скачать торрент

1 сезон

скачать торрент

Лицензия

  

Охотники на ведьм / Hansel & Gretel: Witch Hunters (Томми Виркола) [2012, ужасы, фэнтези, боевик, UHD BDRemux 2160p] Дубляж - [Лицензия]

Охотники на ведьм через торрент piratbit.org

Размер: 45.44 GB | Добавлен: 4 года 3 мес. назад | Торрент скачан:33 раза
Смотреть онлайн | Скачать | Поддержите нас   

08-10-2018 09:48 Охотники на ведьм Скачать торрент  

Охотники на ведьм / Hansel & Gretel: Witch Hunters«Новый поворот старой истории»
Год выпуска: 2012
Страна: США, Германия
Жанр: ужасы, фэнтези, боевик
Продолжительность: 01:27:56
Перевод: Дублированный
Субтитры: Русские, английские
Режиссер: Томми Виркола
В ролях:

Джереми Реннер (Hansel), Джемма Артертон (Gretel), Фамке Янссен (Muriel), Пихла Виитала (Mina), Томас Манн (Ben), Дерек Мирс (Edward), Петер Стормаре (Sheriff Berringer), Бьорн Сундквист (Jackson), Райнер Бок (Mayor Engleman), Робин Аткин Даунс (Edward, озвучка), Ингрид Больсё Бердаль (Horned Witch), Джоэнна Кулиг (Red Haired Witch)
Описание:
Едва не погибнув в лапах ужасной ведьмы, Гензель и Гретель стали только сильнее. Одержимые местью, они ведут отчаянную борьбу со злом, даже не подозревая, что их поджидает нечто куда более опасное... собственное прошлое...
Рейтинг:

MPAA: R - Лицам до 17 лет обязательно присутствие взрослого
Качество: UHD BDRemux 2160p
Формат: MKV
Видео: HEVC, HDR, 69076 Кбит/с, 3840x2160, 23.976 Кадр/с
Аудио 1: Русский / AC3 / 48 KHz / 5.1 ch / 640 Kbps (Дубляж -Лицензия)
Аудио 2: Английский / Atmos/TrueHD / 48 KHz / 7.1 ch / 3526 Kbps (Original)
Аудио 3: Английский / AC3 / 48 KHz / 5.1 ch / 640 Kbps (Original)
Навигация по главам: есть
Общее
Уникальный идентификатор : 242429202690692648041573794874399629669 (0xB6622A8495DD3FE58434E540468BA165)
Полное имя : G:\Hansel.and.Gretel.Witch.Hunters.2013.BDRemux.2160p.10bit.HEVC.HDR.4K.x265.Master5.mkv
Формат : Matroska
Версия формата : Version 4
Размер файла : 45,4 Гбайт
Продолжительность : 1 ч. 27 м.
Режим общего битрейта : Переменный
Общий поток : 74,0 Мбит/сек
Название фильма : Hansel.and.Gretel.Witch.Hunters.2013.BDRemux.2160p.10bit.HEVC.HDR.4K.x265.Master5
Дата кодирования : UTC 2018-10-07 20:12:40
Программа кодирования : mkvmerge v7.9.0 ('Birds') 64bit
Библиотека кодирования : libebml v1.3.1 + libmatroska v1.4.2

Видео
Идентификатор : 1
Формат : HEVC
Формат/Информация : High Efficiency Video Coding
Коммерческое название : HDR10
Профиль формата : Main 10@L5.1@High
Идентификатор кодека : V_MPEGH/ISO/HEVC
Продолжительность : 1 ч. 27 м.
Битрейт : 69,1 Мбит/сек
Ширина : 3840 пикселей
Высота : 2160 пикселей
Соотношение сторон : 16:9
Режим частоты кадров : Постоянный
Частота кадров : 23,976 (24000/1001) кадра/сек
Цветовое пространство : YUV
Субдискретизация насыщенности : 4:2:0 (Type 2)
Битовая глубина : 10 бит
Бит/(Пиксели*Кадры) : 0.347
Размер потока : 42,4 Гбайт (93%)
Заголовок : Hansel.and.Gretel.Witch.Hunters.2013.BDRemux.2160p.10bit.HEVC.HDR.4K.x265.Master5
Default : Да
Forced : Нет
Цветовой диапазон : Limited
Основные цвета : BT.2020
Характеристики трансфера : PQ
Коэффициенты матрицы : BT.2020 non-constant
MasteringDisplay_ColorPrimaries : Display P3
MasteringDisplay_Luminance : min: 0.0001 cd/m2, max: 1000 cd/m2

Аудио #1
Идентификатор : 2
Формат : AC-3
Формат/Информация : Audio Coding 3
Коммерческое название : Dolby Digital
Идентификатор кодека : A_AC3
Продолжительность : 1 ч. 27 м.
Вид битрейта : Постоянный
Битрейт : 640 Кбит/сек
Каналы : 6 каналов
Channel layout : L R C LFE Ls Rs
Частота : 48,0 КГц
Частота кадров : 31,250 кадров/сек (1536 SPF)
Битовая глубина : 16 бит
Метод сжатия : С потерями
Размер потока : 403 Мбайт (1%)
Язык : Russian
ServiceKind/String : Complete Main
Default : Да
Forced : Да

Аудио #2
Идентификатор : 3
Формат : MLP FBA
Формат/Информация : Meridian Lossless Packing FBA
Коммерческое название : Dolby TrueHD
Идентификатор кодека : A_TRUEHD
Продолжительность : 1 ч. 27 м.
Вид битрейта : Переменный
Битрейт : 3526 Кбит/сек
Максимальный битрейт : 4860 Кбит/сек
Каналы : 6 каналов
Channel layout : L R C LFE Ls Rs
Частота : 48,0 КГц
Частота кадров : 1200,000 кадров/сек (40 SPF)
Метод сжатия : Без потерь
Размер потока : 2,17 Гбайт (5%)
Язык : English
Default : Нет
Forced : Нет

Аудио #3
Идентификатор : 4
Формат : AC-3
Формат/Информация : Audio Coding 3
Коммерческое название : Dolby Digital
Идентификатор кодека : A_AC3
Продолжительность : 1 ч. 27 м.
Вид битрейта : Постоянный
Битрейт : 640 Кбит/сек
Каналы : 6 каналов
Channel layout : L R C LFE Ls Rs
Частота : 48,0 КГц
Частота кадров : 31,250 кадров/сек (1536 SPF)
Битовая глубина : 16 бит
Метод сжатия : С потерями
Размер потока : 403 Мбайт (1%)
Язык : English
ServiceKind/String : Complete Main
Default : Нет
Forced : Нет

Текст #1
Идентификатор : 5
Формат : PGS
Режим смешивания : zlib
Идентификатор кодека : S_HDMV/PGS
Идентификатор кодека/Информация : Picture based subtitle format used on BDs/HD-DVDs
Продолжительность : 1 ч. 26 м.
Битрейт : 6362 бит/сек
ElementCount : 1620
Размер потока : 3,93 Мбайт (0%)
Заголовок : Russian-PGS
Язык : Russian
Default : Нет
Forced : Нет

Текст #2
Идентификатор : 6
Формат : PGS
Режим смешивания : zlib
Идентификатор кодека : S_HDMV/PGS
Идентификатор кодека/Информация : Picture based subtitle format used on BDs/HD-DVDs
Продолжительность : 1 ч. 19 м.
Битрейт : 6986 бит/сек
ElementCount : 1590
Размер потока : 3,98 Мбайт (0%)
Заголовок : English-PGS
Язык : English
Default : Нет
Forced : Нет

Текст #3
Идентификатор : 7
Формат : PGS
Режим смешивания : zlib
Идентификатор кодека : S_HDMV/PGS
Идентификатор кодека/Информация : Picture based subtitle format used on BDs/HD-DVDs
Продолжительность : 1 ч. 21 м.
Битрейт : 9062 бит/сек
ElementCount : 2086
Размер потока : 5,27 Мбайт (0%)
Заголовок : English-SDH-PGS
Язык : English
Default : Нет
Forced : Нет

Меню
00:00:00.000 : :Chapter 1
00:08:57.828 : :Chapter 2
00:15:58.791 : :Chapter 3
00:24:08.113 : :Chapter 4
00:32:18.937 : :Chapter 5
00:40:13.869 : :Chapter 6
00:46:46.637 : :Chapter 7
00:52:23.098 : :Chapter 8
01:00:21.034 : :Chapter 9
01:05:06.652 : :Chapter 10
01:12:50.657 : :Chapter 11
01:19:02.863 : :Chapter 12



Скачать Охотники на ведьм через торрент https://d.radikal.ru/d06/1810/c9/4450724de4af.png Скачать, смотреть онлайн Охотники на ведьм бесплантно в хорошем качестве Описание: Едва не погибнув в лапах ужасной ведьмы, Гензель и Гретель стали только сильнее. Одержимые местью, они ведут отчаянную борьбу со ... 10 10 4
Торрент: Зарегистрирован [2018-10-08 09:48] · скачан: 33 раз
Статус: √ проверено
Размер: 45.44 GB
Как cкачать? Как скачать Охотники на ведьм через торрент | UTorrent

% Раздел Тема Автор DL S | L
Ultra HD (UHD: 2K, 4K, 8K) [ 12.39 GB ] Охотники на ведьм / Hansel & Gretel: Witch Hunters | Лицензия | 2160p sheker187 Скачать
1 | 2
Ultra HD (UHD: 2K, 4K, 8K) [ 47.59 GB ] Охотники на ведьм / Hansel & Gretel: Witch Hunters | Лицензия | 2160p sheker187 Скачать
1 | 0
Ultra HD (UHD: 2K, 4K, 8K) [ 61.64 GB ] Охотники на ведьм / Hansel and Gretel: Witch Hunters | DUB | 2160p bober100 Скачать
1 | 0
Фильмы [HD 720p, 1080p] (Хороший звук DUB, MVO) [ 11.9 GB ] Охотники на ведьм / Hansel & Gretel: Witch Hunters | AVO | 1080p, Расширенная версия Seedtank Скачать
1 | 0
Фильмы [HD 720p, 1080p] (Хороший звук DUB, MVO) [ 5.54 GB ] Охотники на ведьм / Hansel & Gretel: Witch Hunters | | 720p potroks Скачать
1 | 0
Фильмы с авторской озвучкой [ 1.46 GB ] Охотники на ведьм / Hansel and Gretel: Witch Hunters | AVO | BDRip killermax2013 Скачать
1 | 0
Фильмы 2013 [DVDrip, WEB-DLRip, HDrip] [ 1.37 GB ] Охотники на ведьм / Hansel & Gretel: Witch Hunters | | BDRip diletant Скачать
1 | 0

28-11-2019 20:33  


Отключить вcю реклaмy на сайте, в т.ч. и в плеере онлайн просмотра!

    Дорогой пользователь! Огромная просьба, поблагодарите релизера, оцените раздачу и оставьте свои комментарий, если Вы скачали Охотники на ведьм через торрент бесплатно!!
    Комментировать посты могут только пользователи прошедшие не сложную регистрацию
    Показать сообщения:    


    Охотники на ведьм через торрент
    Скачать бесплатно Охотники на ведьм
    Охотники на ведьм скачать торрент
    Охотники на ведьм смотреть онлайн
    Cкачать фильм Охотники на ведьм бесплатно
    Охотники на ведьм скачать торрент в хорошем качестве
    Охотники на ведьм смотреть онлайн бесплатно в хорошем качестве
    Вы не можете начинать темы
    Вы не можете отвечать на сообщения
    Вы не можете редактировать свои сообщения
    Вы не можете удалять свои сообщения
    Вы не можете голосовать в опросах
    Вы не можете прикреплять файлы к сообщениям
    Вы можете скачивать файлы
    Охотники на ведьм / Hansel & Gretel: Witch Hunters [2012, ужасы, фэнтези, боевик, UHD BDRemux 2160p] Дубляж - [Лицензия] смотреть онлайн, скачать торрент picoco.icu