Доктор Стрэндж

Лицензия

Добыча

Дубляж

Дом дракона

1 сезон

Тор

Дубляж

В эфире

Дубляж

Там, где раки поют

MVO

Властелин колец

1 сезон

Ultimate

pack

Рекомендуем

30

Пиратка

ВАЖНО

ВАЖНО

Ghostwire

Пиратка

jed

RePack

nioh2

RePack

RDR2

RePack

NEED FOR SPEED™ PAYBACK

RePack

скачать торрент

Кинопоиск HD

Острые козырьки 6 сезон

6 сезон

FAR CRY 6

RePack

скачать торрент

Лицензия

скачать торрент

MVO

1

1 сезон

скачать торрент

1 сезон

скачать торрент

Лицензия

  

Смерть улыбается убийце / La morte ha sorriso all'assassino (Джо Д’Амато) [1973, ужасы, триллер, мелодрама, детектив, BDRip 720p ] VO

Смерть улыбается убийце через торрент piratbit.org

Размер: 3.57 GB | Добавлен: 4 года 1 мес. назад | Торрент скачан:14 раз
Смотреть онлайн | Скачать   

08-10-2018 13:36 Смерть улыбается убийце Скачать торрент  

Название: Смерть улыбается убийце
Оригинальное название: La morte ha sorriso all'assassino
Год выпуска: 1973
Страна: Италия
Жанр: ужасы, триллер, мелодрама, детектив
Продолжительность: 01:28:16
Перевод: закадровый одноголосый

Режиссер: Джо Д`Амато
В ролях: Ева Аулин, Клаус Кински, Анджела Бо, Серджо Дория, Аттилио Доттезио, Марко Мариани, Лючано Росси, Джакомо Росси-Стюарт, Фернандо Черулли, Карла Манчини

Описание: После смерти от неудачных родов Грета фон Хольштейн при помощи древней магии была возвращена к жизни своим братом. Её существование теперь подчинялось единственной цели — мести. Сначала нам показывают её труп на алтаре и брата, потом карету, попавшую в аварию. Кучер погиб, а Грета выжила. Её приютила молодая семья аристократов. После осмотра странным доктором и диагноза «амнезия» хозяева дома решают оставить Грету у себя, пока она полностью не выздоровеет. Постепенно девушка соблазняет и мужа, и жену, а все остальные персонажи, тем или иным образом причастные к Грете, умирают от рук неизвестного убийцы. И это только начало...



Качество: BDRip 720p
Формат: MKV
Видео: MPEG-4 AVC, 5412 Кбит/с, 1280x690
Аудио 1: русский, AC3, 192 kbps, 1 ch, 48 kHz [закадровый одноголосый, Олег Воротилин]
Аудио 2: итальянский, AC3, 192 kbps, 1 ch, 48 kHz [оригинал]
Субтитры 1: русские
Субтитры 2: английские
Главы/чаптеры
Общее
Уникальный идентификатор : 251419289093187036579432225942807637007 (0xBD2597FFBEC533EB92050E90806DEC0F)
Полное имя : D:\Video\Смерть улыбается убийце.1973.BDRip 720p by msltel.mkv
Формат : Matroska
Версия формата : Version 4
Размер файла : 3,57 Гбайт
Продолжительность : 1 ч. 28 м.
Общий поток : 5798 Кбит/сек
Название фильма : Rip by msltel
Дата кодирования : UTC 2018-10-06 16:01:48
Программа кодирования : mkvmerge v8.2.0 ('World of Adventure') 64bit
Библиотека кодирования : libebml v1.3.1 + libmatroska v1.4.2

Видео
Идентификатор : 1
Формат : AVC
Формат/Информация : Advanced Video Codec
Профиль формата : High@L4.1
Настройки формата : CABAC / 9 Ref Frames
Параметр CABAC формата : Да
Параметр RefFrames формата : 9 кадров
Идентификатор кодека : V_MPEG4/ISO/AVC
Продолжительность : 1 ч. 28 м.
Битрейт : 5412 Кбит/сек
Ширина : 1280 пикселей
Высота : 690 пикселей
Соотношение сторон : 1,85:1
Режим частоты кадров : Постоянный
Частота кадров : 23,976 (24000/1001) кадра/сек
Цветовое пространство : YUV
Субдискретизация насыщенности : 4:2:0
Битовая глубина : 8 бит
Тип развёртки : Прогрессивная
Бит/(Пиксели*Кадры) : 0.256
Размер потока : 3,34 Гбайт (93%)
Библиотека кодирования : x264 core 155 r2901 7d0ff22
Настройки программы : cabac=1 / ref=9 / deblock=1:-3:-2 / analyse=0x3:0x113 / me=umh / subme=11 / psy=1 / psy_rd=1.00:0.15 / mixed_ref=1 / me_range=32 / chroma_me=1 / trellis=2 / 8x8dct=1 / cqm=0 / deadzone=21,11 / fast_pskip=0 / chroma_qp_offset=-3 / threads=6 / lookahead_threads=1 / sliced_threads=0 / nr=0 / decimate=1 / interlaced=0 / bluray_compat=0 / constrained_intra=0 / bframes=13 / b_pyramid=2 / b_adapt=2 / b_bias=0 / direct=1 / weightb=1 / open_gop=0 / weightp=2 / keyint=230 / keyint_min=23 / scenecut=40 / intra_refresh=0 / rc_lookahead=40 / rc=crf / mbtree=1 / crf=21.5 / qcomp=0.60 / qpmin=0 / qpmax=69 / qpstep=4 / vbv_maxrate=62500 / vbv_bufsize=78125 / crf_max=0.0 / nal_hrd=none / filler=0 / ip_ratio=1.40 / aq=1:1.00
Язык : Italian
Default : Да
Forced : Нет

Аудио #1
Идентификатор : 2
Формат : AC-3
Формат/Информация : Audio Coding 3
Коммерческое название : Dolby Digital
Идентификатор кодека : A_AC3
Продолжительность : 1 ч. 28 м.
Вид битрейта : Постоянный
Битрейт : 192 Кбит/сек
Каналы : 1 канал
Channel layout : C
Частота : 48,0 КГц
Частота кадров : 31,250 кадров/сек (1536 SPF)
Битовая глубина : 16 бит
Метод сжатия : С потерями
Размер потока : 121 Мбайт (3%)
Заголовок : Олег Воротилин
Язык : Russian
ServiceKind/String : Complete Main
Default : Да
Forced : Нет

Аудио #2
Идентификатор : 3
Формат : AC-3
Формат/Информация : Audio Coding 3
Коммерческое название : Dolby Digital
Идентификатор кодека : A_AC3
Продолжительность : 1 ч. 28 м.
Вид битрейта : Постоянный
Битрейт : 192 Кбит/сек
Каналы : 1 канал
Channel layout : C
Частота : 48,0 КГц
Частота кадров : 31,250 кадров/сек (1536 SPF)
Битовая глубина : 16 бит
Метод сжатия : С потерями
Размер потока : 121 Мбайт (3%)
Заголовок : original
Язык : Italian
ServiceKind/String : Complete Main
Default : Нет
Forced : Нет

Текст #1
Идентификатор : 4
Формат : UTF-8
Идентификатор кодека : S_TEXT/UTF8
Идентификатор кодека/Информация : UTF-8 Plain Text
Продолжительность : 1 ч. 26 м.
Битрейт : 36 бит/сек
ElementCount : 420
Размер потока : 23,3 Кбайт (0%)
Заголовок : русские
Язык : Russian
Default : Нет
Forced : Нет

Текст #2
Идентификатор : 5
Формат : UTF-8
Идентификатор кодека : S_TEXT/UTF8
Идентификатор кодека/Информация : UTF-8 Plain Text
Продолжительность : 1 ч. 26 м.
Битрейт : 29 бит/сек
ElementCount : 653
Размер потока : 19,0 Кбайт (0%)
Заголовок : английские
Язык : English
Default : Нет
Forced : Нет

Меню
00:00:00.000 : en:Chapter 1
00:08:06.277 : en:Chapter 2
00:16:46.130 : en:Chapter 3
00:22:58.627 : en:Chapter 4
00:30:07.014 : en:Chapter 5
00:40:26.633 : en:Chapter 6
00:45:45.576 : en:Chapter 7
00:50:56.679 : en:Chapter 8
00:56:39.396 : en:Chapter 9
01:02:26.868 : en:Chapter 10
01:13:24.859 : en:Chapter 11
01:19:36.063 : en:Chapter 12



Скачать Смерть улыбается убийце через торрент https://d.radikal.ru/d06/1810/1b/e47f1fd29936.jpg Скачать, смотреть онлайн Смерть улыбается убийце бесплантно в хорошем качестве Описание: После смерти от неудачных родов Грета фон Хольштейн при помощи древней магии была возвращена к жизни своим братом. Её ... 10 10 2
Торрент: Зарегистрирован [2018-10-08 13:36] · скачан: 14 раз
Статус: √ проверено
Размер: 3.57 GB
Как cкачать? Как скачать Смерть улыбается убийце через торрент | UTorrent

% Раздел Тема Автор DL S | L
Фильмы [HD 720p, 1080p] (Звук Cam, VO, DVO) [ 10.36 GB ] Смерть улыбается убийце / La morte ha sorriso all'assassino | | 1080p msltel Скачать
1 | 0

28-11-2019 20:33  


Отключить вcю реклaмy на сайте, в т.ч. и в плеере онлайн просмотра!

    Дорогой пользователь! Огромная просьба, поблагодарите релизера, оцените раздачу и оставьте свои комментарий, если Вы скачали Смерть улыбается убийце через торрент бесплатно!!
    Комментировать посты могут только пользователи прошедшие не сложную регистрацию
    Показать сообщения:    


    Смерть улыбается убийце через торрент
    Скачать бесплатно Смерть улыбается убийце
    Смерть улыбается убийце скачать торрент
    Смерть улыбается убийце смотреть онлайн
    Cкачать фильм Смерть улыбается убийце бесплатно
    Смерть улыбается убийце скачать торрент в хорошем качестве
    Смерть улыбается убийце смотреть онлайн бесплатно в хорошем качестве
    Вы не можете начинать темы
    Вы не можете отвечать на сообщения
    Вы не можете редактировать свои сообщения
    Вы не можете удалять свои сообщения
    Вы не можете голосовать в опросах
    Вы не можете прикреплять файлы к сообщениям
    Вы можете скачивать файлы
    Смерть улыбается убийце / La morte ha sorriso all'assassino [1973, ужасы, триллер, мелодрама, детектив, BDRip 720p ] VO смотреть онлайн, скачать торрент picoco.icu